img image001 image001 image001 image001 image001 image001 image001 image001 image001 image001 image001 image001 image001 image001 image001

Planets Sun Sun Sun
Статистика раздачи
Автор: Снежана | Размер: 8.73 ГБ | Добавлен: 24 июл 2013
Раздают: 26    Качают: 9
Скачать торрент
Скачать торрент
Описание торрента

СообщениеДобавлено: 24 июл 2013 

#77


Жанр: боевик, приключения
Год выпуска: 2009/2010
Продолжительность: 01:34:06 | 01:29:35

Режиссёр: Павел Санаев




Информация о фильме
Название: На игре
Год выхода: 2009
Жанр: боевик, приключения
Режиссер: Павел Санаев
В ролях: Алексей Бардуков, Агния Дитковските, Сергей Чирков, Павел Прилучный, Евгений Харланов, Виктор Вержбицкий, Игорь Скляр, Марина Петренко, Тихон Жизневский, Нодар Сирадзе

О фильме:
После оглушительной победы на турнире по киберспорту команде геймеров вручают диски с только что разработанной игрой. Запустив игру, каждый из них подвергается воздействию, переводящему их игровые способности в реальные. Теперь и в жизни они лучшие бойцы, стрелки и гонщики.
Данное событие не остается незамеченным. Властные структуры путем шантажа, обмана и подкупа предлагают геймерам «работу». Но как только обман раскрывается, становится понятно, что они не герои, спасающие страну, а банальные наемные убийцы. Встает вопрос: как быть дальше? К тому же дисков у производителя еще много, и появление таких же, как они, профи — это вопрос времени.
Теперь перед геймерами стоит задача найти тираж и… либо уничтожить его, либо, создав и возглавив целую армию геймеров, диктовать свою волю… Команда разделилась. Каждый идет к своей цели.



Выпущено: Россия
Продолжительность: 01:34:06
Перевод: Оригинал

Файл
Кодек: H264
Качество: BDRip 1080p
Видео: 1920x816, 6014 Kbps, 24.000 fps
Звук: 48 kHz, AC3, 6c, 640 kbps

General
Unique ID : 174200406689183361032572013500794851408 (0x830DC7282BD13B73905145B76CBAD050)
Complete name : На игре.2009.BDRip.1080p.mkv
Format : Matroska
Format version : Version 2
File size : 4.36 GiB
Duration : 1h 34mn
Overall bit rate : 6 634 Kbps
Movie name : На игре.2009
Encoded date : UTC 2012-01-31 21:08:29
Writing application : mkvmerge v5.2.1 ('A Far Off Place') built on Jan 7 2012 21:56:27
Writing library : libebml v1.2.3 + libmatroska v1.3.0

Video
ID : 1
Format : AVC
Format/Info : Advanced Video Codec
Format profile : High@L4.1
Format settings, CABAC : Yes
Format settings, ReFrames : 5 frames
Codec ID : V_MPEG4/ISO/AVC
Duration : 1h 34mn
Bit rate : 6 014 Kbps
Width : 1 920 pixels
Height : 816 pixels
Display aspect ratio : 2.35:1
Frame rate mode : Variable
Frame rate : 24.000 fps
Color space : YUV
Chroma subsampling : 4:2:0
Bit depth : 8 bits
Scan type : Progressive
Bits/(Pixel*Frame) : 0.160
Stream size : 3.85 GiB (88%)
Title : Rip by Boriy
Writing library : x264 core 120 r2146M bcd41db
Encoding settings : cabac=1 / ref=5 / deblock=1:0:0 / analyse=0x3:0x133 / me=umh / subme=10 / psy=1 / psy_rd=1.00:0.10 / mixed_ref=1 / me_range=32 / chroma_me=1 / trellis=2 / 8x8dct=1 / cqm=0 / deadzone=21,11 / fast_pskip=0 / chroma_qp_offset=-3 / threads=12 / sliced_threads=0 / nr=0 / decimate=1 / interlaced=0 / bluray_compat=0 / constrained_intra=0 / bframes=5 / b_pyramid=2 / b_adapt=2 / b_bias=0 / direct=3 / weightb=1 / open_gop=0 / weightp=2 / keyint=240 / keyint_min=24 / scenecut=40 / intra_refresh=0 / rc_lookahead=60 / rc=2pass / mbtree=1 / bitrate=6014 / ratetol=1.0 / qcomp=0.60 / qpmin=0 / qpmax=69 / qpstep=4 / cplxblur=20.0 / qblur=0.5 / ip_ratio=1.40 / aq=1:1.00
Language : English
Default : Yes
Forced : No

Audio
ID : 2
Format : AC-3
Format/Info : Audio Coding 3
Mode extension : CM (complete main)
Codec ID : A_AC3
Duration : 1h 34mn
Bit rate mode : Constant
Bit rate : 640 Kbps
Channel(s) : 6 channels
Channel positions : Front: L C R, Side: L R, LFE
Sampling rate : 48.0 KHz
Bit depth : 16 bits
Compression mode : Lossy
Stream size : 431 MiB (10%)
Title : Оригинал
Language : Russian
Default : Yes
Forced : No

Menu
00:00:00.000 : en:
00:08:47.708 : en:
00:15:28.000 : en:
00:23:00.250 : en:
00:31:17.666 : en:
00:37:55.666 : en:
00:46:14.791 : en:
00:53:33.791 : en:
00:59:03.750 : en:
01:07:21.375 : en:
01:15:02.208 : en:
01:21:32.458 : en:
01:34:06.000 : en:



Информация о фильме
Название: На игре 2. Новый уровень
Год выхода: 2010
Жанр: боевик, приключения
Режиссер: Павел Санаев
В ролях: Сергей Чирков, Марина Петренко, Павел Прилучный, Евгений Харланов, Нодар Сирадзе, Алексей Бардуков, Тихон Жизневский, Агния Дитковските, Виктор Вержбицкий, Борис Тенин

О фильме:
После проведения спецоперации, во время которой был убит один из членов команды, у геймеров начинается другая жизнь. Каждый из них понимает - они работают на крупный преступный синдикат.
За дисками теперь охотятся все - и властные структуры, и геймеры. Задача - не допустить, чтобы такой материал попал за границу. Часть команды решает забрать их себе и сформировать собственную подконтрольную армию. Вампир и Рита пытаются им помешать.
Теперь в команде - каждый сам за себя.


Выпущено: Россия
Продолжительность: 01:29:35
Перевод: Оригинал

Файл
Кодек: H264
Качество: BDRip 1080p
Видео: 1920x816, 6350 Kbps, 23.976 fps
Звук: 48 kHz, AC3, 6c, 640 kbps

General
Unique ID : 222574562289380971636914221578292698447 (0xA7724D2AFD042A77A6154D8F2D721D4F)
Complete name : На игре 2.2010.BDRip.1080p.mkv
Format : Matroska
Format version : Version 2
File size : 4.37 GiB
Duration : 1h 29mn
Overall bit rate : 6 982 Kbps
Movie name : На игре 2.2010
Encoded date : UTC 2012-02-02 12:13:02
Writing application : mkvmerge v5.2.1 ('A Far Off Place') built on Jan 7 2012 21:56:27
Writing library : libebml v1.2.3 + libmatroska v1.3.0

Video
ID : 1
Format : AVC
Format/Info : Advanced Video Codec
Format profile : High@L4.1
Format settings, CABAC : Yes
Format settings, ReFrames : 5 frames
Codec ID : V_MPEG4/ISO/AVC
Duration : 1h 29mn
Bit rate : 6 350 Kbps
Width : 1 920 pixels
Height : 816 pixels
Display aspect ratio : 2.35:1
Frame rate mode : Variable
Frame rate : 23.976 fps
Color space : YUV
Chroma subsampling : 4:2:0
Bit depth : 8 bits
Scan type : Progressive
Bits/(Pixel*Frame) : 0.169
Stream size : 3.88 GiB (89%)
Title : Rip by Boriy
Writing library : x264 core 120 r2146M bcd41db
Encoding settings : cabac=1 / ref=5 / deblock=1:0:0 / analyse=0x3:0x133 / me=umh / subme=10 / psy=1 / psy_rd=1.00:0.10 / mixed_ref=1 / me_range=32 / chroma_me=1 / trellis=2 / 8x8dct=1 / cqm=0 / deadzone=21,11 / fast_pskip=0 / chroma_qp_offset=-3 / threads=12 / sliced_threads=0 / nr=0 / decimate=1 / interlaced=0 / bluray_compat=0 / constrained_intra=0 / bframes=5 / b_pyramid=2 / b_adapt=2 / b_bias=0 / direct=3 / weightb=1 / open_gop=0 / weightp=2 / keyint=240 / keyint_min=24 / scenecut=40 / intra_refresh=0 / rc_lookahead=60 / rc=2pass / mbtree=1 / bitrate=6350 / ratetol=1.0 / qcomp=0.60 / qpmin=0 / qpmax=69 / qpstep=4 / cplxblur=20.0 / qblur=0.5 / ip_ratio=1.40 / aq=1:1.00
Language : English
Default : Yes
Forced : No

Audio
ID : 2
Format : AC-3
Format/Info : Audio Coding 3
Mode extension : CM (complete main)
Codec ID : A_AC3
Duration : 1h 29mn
Bit rate mode : Constant
Bit rate : 640 Kbps
Channel(s) : 6 channels
Channel positions : Front: L C R, Side: L R, LFE
Sampling rate : 48.0 KHz
Bit depth : 16 bits
Compression mode : Lossy
Stream size : 410 MiB (9%)
Title : Оригинал
Language : Russian
Default : Yes
Forced : No

Menu
00:00:00.000 : en:
00:08:05.318 : en:
00:16:11.470 : en:
00:23:17.312 : en:
00:30:36.209 : en:
00:39:05.176 : en:
00:44:50.854 : en:
00:53:06.641 : en:
01:00:58.905 : en:
01:05:12.408 : en:
01:14:26.753 : en:
01:24:08.835 : en:
01:29:30.573 : en:



   Похожие торренты   Торрент   Размер 
В этой теме нет новых непрочитанных сообщений. На игре: Дилогия (2009-2010) DVDRip

11 | 6

2.92 ГБ

В этой теме нет новых непрочитанных сообщений. На игре / На игре 2. Новый уровень (2009/2010) BDRip 720p от Iriy

12 | 5

8.73 ГБ

В этой теме нет новых непрочитанных сообщений. На игре / На игре 2. Новый уровень (2009/2010) BDRip от HQCLUB

94 | 9

2.91 ГБ

В этой теме нет новых непрочитанных сообщений. На игре / На игре 2. Новый уровень (2009/2010) BDRip-AVC от New-Team

393 | 32

4.36 ГБ

В этой теме нет новых непрочитанных сообщений. На игре: Дилогия (2009/2010) HDRip-AVC от "48 seconds" от Zlofenix

123 | 8

2.91 ГБ

В этой теме нет новых непрочитанных сообщений. На игре (2009) BDRip 1080p от Element team

82 | 7

7.53 ГБ

В этой теме нет новых непрочитанных сообщений. На игре (2009) BDRip от HQRips

658 | 32

1.46 ГБ




Вы не можете начинать темы
Вы не можете отвечать на сообщения
Вы не можете редактировать свои сообщения
Вы не можете удалять свои сообщения
Вы не можете добавлять вложения

Перейти:  
Для Мосгорсуда, Роскомнадзора и рекламодателей: mosgorsud-torrent[собачка]yandex.ru
 Вход
ppkBB3cker v.2 © 2008-2014 @ PPK
[ Time : 0.039s | 15 Queries | GZIP : Off ]

Торрент трекер RUTOR.IN, Не можете зайти на rutor.org? Какой новый адрес рутор? Какое зеркало рутор? Не работает rutor.org и зеркала? Тогда наш торрент специально для вас. Rutor.in неофициальное зеркало rutor. В случае если у Вас заблокирован rutor или вдруг Вы не можете на него зайти, то Вы без труда сможете скачать бесплатно и без рекламы последние новинки кино, игр, сериалов и прочего у нас, на Rutor.in. Не нужно использовать прокси, чтобы зайти на рутор, достаточно воспользоваться нашим ресурсом. Все новые фильмы, игры, сериалы, книги и музыка за 2013 и 2014 годы через торрент бесплатно. Скачивайте фильмы в хорошем качестве, игры для пк, xbox, playstation без регистрации. У нас вы найдете новые Зарубежные сериалы и Русские сериалы 2013, 2014, 2015 годов. Оставайтесь с нами, качайте любимые фильмы, игры, сериалы, книги и музыку.
cron