img image001 image001 image001 image001 image001 image001 image001 image001 image001 image001 image001 image001 image001 image001 image001

Planets Sun Sun Sun
Статистика раздачи
Автор: Снежана | Размер: 2.18 ГБ | Добавлен: 24 июл 2013
Раздают: 603    Качают: 27
Скачать торрент
Скачать торрент
Описание торрента

СообщениеДобавлено: 24 июл 2013 

День радио / Den radio (2008) BDRip-AVC
Релиз от HQ-ViDEO



Студия: Централ Партнершип
Год выхода: 2008
Жанр: Отечественный, Комедия

Режиссер: Дмитрий Дьяченко

В ролях: Михаил Козырев, Леонид Барац, Ростислав Хаит, Александр Демидов, Камиль Ларин, Михаил Полицеймако, Нонна Гришаева, Максим Виторган, Дмитрий Марьянов, Анна Касаткина, Федор Добронравов, Амалия Мордвинова, Алексей Хардиков, Георгий Мартиросян, Эммануил Виторган и др.

О фильме: Один день из жизни модной московской радиостанции. Не самый лучший день - рушатся все планы, все валится из рук: И именно в тот момент, когда на станции в прямом эфире вот-вот должен начаться марафон, а популярные российские рок-группы придут в эфир, чтобы поддержать: впрочем, это уже неважно, потому что тема марафона перехвачена конкурентами и активно обсуждается в эфире радиостанции. Но марафон отменять нельзя!
Рабочий день обещает стать последним для всего творческого состава, если срочно не найдется новая тема. А тем временем из Находки вышел маленький катер с лучшими представителями Благовещенского областного цирка - медведь, обезьяна, два пуделя, петух, козел, кабан, которые плывут на гастроли в Японию...



Релиз:

Автор рипа: agc

Продолжительность: 01:43:01
Перевод: Русский
Субтитры: нет

Информация о файле:
Формат: MKV
Кодек: MPEG-4 AVC; x264 codec
Качество: BDRip-AVC (Исходник: BDRemux)
Видео: 1036 x 560 (1.85:1); 23.976 fps; 2588 kbps; 0.186 bit/pixel
Аудио: AC3 Dolby Digital; 448 kbps; 5.1 Ch; 48 kHz |Russian|
Размер файла: 2235.47 Mb (1/2 DVD)

Скриншоты для оценки качества (превью - увеличение по клику):



Сэмпл

Формат : Matroska
Версия формата : Version 2
Размер файла : 2,18 Гбайт
Продолжительность : 1 ч. 43 м.
Общий поток : 3036 Кбит/сек
Дата кодирования : UTC 2012-03-02 10:26:36
Программа кодирования : mkvmerge v4.9.1 ('Ich will') сборка от Jul 11 2011 23:53:15
Библиотека кодирования : libebml v1.2.1 + libmatroska v1.1.1

Видео
Идентификатор : 1
Формат : AVC
Формат/Информация : Advanced Video Codec
Профиль формата : High@L4.1
Параметр CABAC формата : Да
Параметр ReFrames формата : 13 кадров
Идентификатор кодека : V_MPEG4/ISO/AVC
Продолжительность : 1 ч. 43 м.
Битрейт : 2588 Кбит/сек
Ширина : 1036 пикселей
Высота : 560 пикселей
Соотношение сторон : 1,850
Частота кадров : 23,976 кадра/сек
Цветовое пространство : YUV
Субдискретизация насыщенности : 4:2:0
Битовая глубина : 8 бит
Тип развёртки : Прогрессивная
Бит/(Пиксели*Кадры) : 0.186
Размер потока : 1,82 Гбайт (83%)
Библиотека кодирования : x264 core 120 r2164 da19765
Настройки программы : cabac=1 / ref=13 / deblock=1:-2:-1 / analyse=0x3:0x113 / me=umh / subme=10 / psy=1 / psy_rd=1.00:0.15 / mixed_ref=1 / me_range=32 / chroma_me=1 / trellis=2 / 8x8dct=1 / cqm=0 / deadzone=21,11 / fast_pskip=0 / chroma_qp_offset=-3 / threads=6 / sliced_threads=0 / nr=0 / decimate=1 / interlaced=0 / bluray_compat=0 / constrained_intra=0 / bframes=8 / b_pyramid=2 / b_adapt=2 / b_bias=0 / direct=1 / weightb=1 / open_gop=0 / weightp=2 / keyint=240 / keyint_min=23 / scenecut=40 / intra_refresh=0 / rc=2pass / mbtree=0 / bitrate=2588 / ratetol=1.0 / qcomp=0.60 / qpmin=0 / qpmax=69 / qpstep=4 / cplxblur=20.0 / qblur=0.5 / ip_ratio=1.40 / pb_ratio=1.30 / aq=1:1.00

Аудио
Идентификатор : 2
Формат : AC-3
Формат/Информация : Audio Coding 3
Расширение режима : CM (complete main)
Идентификатор кодека : A_AC3
Продолжительность : 1 ч. 43 м.
Вид битрейта : Постоянный
Битрейт : 448 Кбит/сек
Каналы : 6 каналов
Расположение каналов : Front: L C R, Side: L R, LFE
Частота : 48,0 КГц
Битовая глубина : 16 бит
Метод сжатия : С потерями
Размер потока : 330 Мбайт (15%)
Язык : Russian



ПРИЯТНОГО ПРОСМОТРА!



   Похожие торренты   Торрент   Размер 
В этой теме нет новых непрочитанных сообщений. День радио (2008) BDRip от HQ-ViDEO

1669 | 49

1.46 ГБ

В этой теме нет новых непрочитанных сообщений. Эпоха радио / Radio Days (1987) BDRip от HQ-ViDEO

51 | 4

1.45 ГБ

В этой теме нет новых непрочитанных сообщений. День радио (2008) BDRip 1080p

127 | 5

9.72 ГБ

В этой теме нет новых непрочитанных сообщений. День радио (2008) BDRip от HQCLUB

50 | 8

1.8 ГБ

В этой теме нет новых непрочитанных сообщений. День радио (2008) BDRip от HELLYWOOD

173 | 6

1.45 ГБ

В этой теме нет новых непрочитанных сообщений. День радио (2008) BDRip 1080p от BT-Club

298 | 13

8.02 ГБ

В этой теме нет новых непрочитанных сообщений. День радио (2008) BDRip 720p от HDCLUB

372 | 15

4.31 ГБ




Вы не можете начинать темы
Вы не можете отвечать на сообщения
Вы не можете редактировать свои сообщения
Вы не можете удалять свои сообщения
Вы не можете добавлять вложения

Перейти:  
Для Мосгорсуда, Роскомнадзора и рекламодателей: mosgorsud-torrent[собачка]yandex.ru
 Вход
ppkBB3cker v.2 © 2008-2014 @ PPK
[ Time : 0.017s | 14 Queries | GZIP : On ]

Торрент трекер RUTOR.IN, Не можете зайти на rutor.org? Какой новый адрес рутор? Какое зеркало рутор? Не работает rutor.org и зеркала? Тогда наш торрент специально для вас. Rutor.in неофициальное зеркало rutor. В случае если у Вас заблокирован rutor или вдруг Вы не можете на него зайти, то Вы без труда сможете скачать бесплатно и без рекламы последние новинки кино, игр, сериалов и прочего у нас, на Rutor.in. Не нужно использовать прокси, чтобы зайти на рутор, достаточно воспользоваться нашим ресурсом. Все новые фильмы, игры, сериалы, книги и музыка за 2013 и 2014 годы через торрент бесплатно. Скачивайте фильмы в хорошем качестве, игры для пк, xbox, playstation без регистрации. У нас вы найдете новые Зарубежные сериалы и Русские сериалы 2013, 2014, 2015 годов. Оставайтесь с нами, качайте любимые фильмы, игры, сериалы, книги и музыку.