img image001 image001 image001 image001 image001 image001 image001 image001 image001 image001 image001 image001 image001 image001 image001

Planets Sun Sun Sun
Статистика раздачи
Автор: Снежана | Размер: 2.18 ГБ | Добавлен: 24 июл 2013
Раздают: 251    Качают: 15
Скачать торрент
Скачать торрент
Описание торрента

СообщениеДобавлено: 24 июл 2013 

О чём ещё говорят мужчины / O chyom eshchyo govoryat muzhchiny (2011) BDRip-AVC
Релиз от HQ-ViDEO



Студия: Кинокомпания "Квадрат"
Год выхода: 2011
Жанр: Отечественный, Мелодрама, Комедия

Режиссер: Дмитрий Дьяченко

В ролях: Леонид Барац, Александр Демидов, Камиль Ларин, Ростислав Хаит, Алёна Бабенко, Елена Подкаминская, Екатерина Вилкова, Виталий Хаев, Анатолий Белый, Денис Шведов и др.

О фильме: Леша, Слава и Камиль в трудную минуту приходят на помощь своему другу Саше. Накануне Нового года он умудрился вступить в конфликт с женой сотрудника силовых структур, и теперь четверо друзей заперлись в офисе рекламного агентства, которым руководит Саша, пытаясь придумать выход из сложившейся ситуации и коротая время в мужских разговорах.



Релиз:

Автор рипа: agc

Продолжительность: 01:38:28
Перевод: Русский
Субтитры: нет

Информация о файле:
Формат: MKV
Кодек: MPEG-4 AVC; x264 codec
Качество: BDRip-AVC (Исходник: BDRemux)
Видео: 1034 x 440 (2.35:1); 24 fps; 2728 kbps; 0.25 bit/pixel
Аудио: AC3 Dolby Digital; 448 kbps; 5.1 Ch; 48 kHz |Russian|
Размер файла: 2236.88 Mb (1/2 DVD)

Скриншоты для оценки качества (превью - увеличение по клику):



Сэмпл

Формат : Matroska
Версия формата : Version 2
Размер файла : 2,18 Гбайт
Продолжительность : 1 ч. 38 м.
Общий поток : 3173 Кбит/сек
Дата кодирования : UTC 2012-03-02 10:43:16
Программа кодирования : mkvmerge v4.9.1 ('Ich will') сборка от Jul 11 2011 23:53:15
Библиотека кодирования : libebml v1.2.1 + libmatroska v1.1.1

Видео
Идентификатор : 1
Формат : AVC
Формат/Информация : Advanced Video Codec
Профиль формата : High@L4.1
Параметр CABAC формата : Да
Параметр ReFrames формата : 15 кадров
Идентификатор кодека : V_MPEG4/ISO/AVC
Продолжительность : 1 ч. 38 м.
Битрейт : 2728 Кбит/сек
Ширина : 1034 пикселя
Высота : 440 пикселей
Соотношение сторон : 2,35:1
Частота кадров : 24,000 кадра/сек
Цветовое пространство : YUV
Субдискретизация насыщенности : 4:2:0
Битовая глубина : 8 бит
Тип развёртки : Прогрессивная
Бит/(Пиксели*Кадры) : 0.250
Размер потока : 1,83 Гбайт (84%)
Библиотека кодирования : x264 core 120 r2164 da19765
Настройки программы : cabac=1 / ref=15 / deblock=1:-2:-1 / analyse=0x3:0x113 / me=umh / subme=11 / psy=1 / psy_rd=1.00:0.10 / mixed_ref=1 / me_range=32 / chroma_me=1 / trellis=2 / 8x8dct=1 / cqm=0 / deadzone=21,11 / fast_pskip=0 / chroma_qp_offset=-3 / threads=6 / sliced_threads=0 / nr=0 / decimate=1 / interlaced=0 / bluray_compat=0 / constrained_intra=0 / bframes=13 / b_pyramid=2 / b_adapt=2 / b_bias=0 / direct=1 / weightb=1 / open_gop=0 / weightp=2 / keyint=240 / keyint_min=24 / scenecut=40 / intra_refresh=0 / rc=2pass / mbtree=0 / bitrate=2728 / ratetol=1.0 / qcomp=0.60 / qpmin=0 / qpmax=69 / qpstep=4 / cplxblur=20.0 / qblur=0.5 / ip_ratio=1.40 / pb_ratio=1.30 / aq=1:1.00

Аудио
Идентификатор : 2
Формат : AC-3
Формат/Информация : Audio Coding 3
Расширение режима : CM (complete main)
Идентификатор кодека : A_AC3
Продолжительность : 1 ч. 38 м.
Вид битрейта : Постоянный
Битрейт : 448 Кбит/сек
Каналы : 6 каналов
Расположение каналов : Front: L C R, Side: L R, LFE
Частота : 48,0 КГц
Битовая глубина : 16 бит
Метод сжатия : С потерями
Размер потока : 316 Мбайт (14%)
Язык : Russian



ПРИЯТНОГО ПРОСМОТРА!



   Похожие торренты   Торрент   Размер 
В этой теме нет новых непрочитанных сообщений. О чём ещё говорят мужчины (2011) BDRip от HQ-ViDEO

46 | 8

1.45 ГБ

В этой теме нет новых непрочитанных сообщений. О чём говорят мужчины (2010) BDRip от HQ-ViDEO

576 | 26

1.45 ГБ

В этой теме нет новых непрочитанных сообщений. О чём говорят мужчины (2010) BDRip-AVC от HQ-ViDEO

938 | 29

2.18 ГБ

В этой теме нет новых непрочитанных сообщений. О чём ещё говорят мужчины (2011) BDRip-AVC от R.G. AVI | AVC | Лицензия

6 | 3

1.46 ГБ

В этой теме нет новых непрочитанных сообщений. О чём ещё говорят мужчины (2011) BDRip от HELLYWOOD

71 | 9

1.45 ГБ

В этой теме нет новых непрочитанных сообщений. О чём ещё говорят мужчины (2011) BDRip от HQCLUB

697 | 10

1.45 ГБ

В этой теме нет новых непрочитанных сообщений. О чём ещё говорят мужчины (2011) BDRip 1080p

523 | 19

4.37 ГБ




Вы не можете начинать темы
Вы не можете отвечать на сообщения
Вы не можете редактировать свои сообщения
Вы не можете удалять свои сообщения
Вы не можете добавлять вложения

Перейти:  
Для Мосгорсуда, Роскомнадзора и рекламодателей: mosgorsud-torrent[собачка]yandex.ru
 Вход
ppkBB3cker v.2 © 2008-2014 @ PPK
[ Time : 0.022s | 16 Queries | GZIP : Off ]
CGP output time : 0.017s | 5 Queries | GZIP : Off

Торрент трекер RUTOR.IN, Не можете зайти на rutor.org? Какой новый адрес рутор? Какое зеркало рутор? Не работает rutor.org и зеркала? Тогда наш торрент специально для вас. Rutor.in неофициальное зеркало rutor. В случае если у Вас заблокирован rutor или вдруг Вы не можете на него зайти, то Вы без труда сможете скачать бесплатно и без рекламы последние новинки кино, игр, сериалов и прочего у нас, на Rutor.in. Не нужно использовать прокси, чтобы зайти на рутор, достаточно воспользоваться нашим ресурсом. Все новые фильмы, игры, сериалы, книги и музыка за 2013 и 2014 годы через торрент бесплатно. Скачивайте фильмы в хорошем качестве, игры для пк, xbox, playstation без регистрации. У нас вы найдете новые Зарубежные сериалы и Русские сериалы 2013, 2014, 2015 годов. Оставайтесь с нами, качайте любимые фильмы, игры, сериалы, книги и музыку.