img image001 image001 image001 image001 image001 image001 image001 image001 image001 image001 image001 image001 image001 image001 image001

Planets Sun Sun Sun
Статистика раздачи
Автор: Снежана | Размер: 2.19 ГБ | Добавлен: 24 июл 2013
Раздают: 30    Качают: 6
Скачать торрент
Скачать торрент
Описание торрента

СообщениеДобавлено: 24 июл 2013 

#77

Жанр: фантастика, драма, военный
Страна: Россия
Режиссер: Иван Шурховецкий, Артем Аксененко
В ролях: Игорь Шмаков, Василий Ракша, Артем Крестников, Григорий Калинин, Евгений Куршинский, Дмитрий Росляков, Вячеслав Буцков, Светлана Устинова, Алексей Марков, Илья Глинников, Родион Галюченко, Дмитрий Сергин, Иван Лапин, Алексей Ильин и др.

Сюжет фильма: Отряд молодых бойцов Российской Армии отрывается от основного строя во время марш-броска, дабы сократить путь, бежит наперерез, но попадает в туман, который переносит его в прошлое, в годы Великой Отечественной войны. Ребята, видевшие войну только в кино, попадают в лапы безжалостных событий того времени. Все на грани: храбрость, страх, любовь, ненависть, жизнь, смерть. И некогда задавать вопросы. Живи, дерись за Родину — она одна на все времена.

Российская премьера: 9 мая 2010



Продолжительность: 02:31:16
Качество видео: DVDRip (рип с DVD9)
Видео: кодек: XviD, размер кадра: 720x352, битрейт: 1608 кб/с, bit/pixel: 0.254
Аудио: язык: Русский , перевод: оригинал, кодек: AC3 2.0, битрейт: 448 кб/с

Релиз группы: Автор рипа:

Общее
Формат : AVI
Формат/Информация : Audio Video Interleave
Профиль формата : OpenDML
Размер файла : 2,19 Гбайт
Продолжительность : 2 ч. 31 м.
Общий поток : 2068 Кбит/сек
Название фильма : Туман (2010) DVDRip
Режиссёр : tise
Программа кодирования : VirtualDubModRus 1.5.10.2 (build 2542/release)
Библиотека кодирования : VirtualDubMod build 2542/release
Правообладатель : www.powertracker.org

Видео
Идентификатор : 0
Формат : MPEG-4 Visual
Профиль формата : Advanced Simple@L5
Параметр BVOP формата : 1
Параметр QPel формата : Нет
Параметр GMC формата : Без точки перехода
Параметр матрицы формата : Default (MPEG)
Идентификатор кодека : XVID
Идентификатор кодека/Подсказка : XviD
Продолжительность : 2 ч. 31 м.
Битрейт : 1608 Кбит/сек
Ширина : 720 пикселей
Высота : 352 пикселя
Соотношение сторон : 16:9
Частота кадров : 25,000 кадров/сек
Цветовое пространство : YUV
Субдискретизация насыщенности : 4:2:0
Битовая глубина : 8 бит
Тип развёртки : Прогрессивная
Метод сжатия : С потерями
Бит/(Пиксели*Кадры) : 0.254
Размер потока : 1,70 Гбайт (78%)
Библиотека кодирования : XviD 1.2.1 (UTC 2008-12-04)

Аудио
Идентификатор : 1
Формат : AC-3
Формат/Информация : Audio Coding 3
Расширение режима : CM (complete main)
Идентификатор кодека : 2000
Продолжительность : 2 ч. 31 м.
Вид битрейта : Постоянный
Битрейт : 448 Кбит/сек
Каналы : 2 канала
Расположение каналов : Front: L R
Частота : 48,0 КГц
Битовая глубина : 16 бит
Метод сжатия : С потерями
Размер потока : 485 Мбайт (22%)
Выравнивание : Разделение по промежуткам
Продолжительность промежутка : 40 мс. (1,00 видеокадр)
Время предзагрузки промежутка : 500 мс.





   Похожие торренты   Торрент   Размер 
В этой теме нет новых непрочитанных сообщений. Туман (2010) DVDRip-AVC

141 | 14

2.63 ГБ

В этой теме нет новых непрочитанных сообщений. Туман (2010) DVDRip-AVC от ExKinoRay

287 | 13

3.38 ГБ

В этой теме нет новых непрочитанных сообщений. Туман (2010) DVDRip от Kinobomond

154 | 20

1.37 ГБ

В этой теме нет новых непрочитанных сообщений. Туман (2010) DVDRip | КПК от Generalfilm

13 | 3

520.91 МБ

В этой теме нет новых непрочитанных сообщений. Туман (2010) DVDRip от SMALL-RiP

58 | 7

1.47 ГБ

В этой теме нет новых непрочитанных сообщений. Туман (2010) DVDRip | Лицензия

196 | 21

702.69 МБ

В этой теме нет новых непрочитанных сообщений. Нэнси - Туман, Туман (1999) MP3

16 | 3

162.91 МБ




Вы не можете начинать темы
Вы не можете отвечать на сообщения
Вы не можете редактировать свои сообщения
Вы не можете удалять свои сообщения
Вы не можете добавлять вложения

Перейти:  
Для Мосгорсуда, Роскомнадзора и рекламодателей: mosgorsud-torrent[собачка]yandex.ru
 Вход
ppkBB3cker v.2 © 2008-2014 @ PPK
[ Time : 0.040s | 16 Queries | GZIP : Off ]

Торрент трекер RUTOR.IN, Не можете зайти на rutor.org? Какой новый адрес рутор? Какое зеркало рутор? Не работает rutor.org и зеркала? Тогда наш торрент специально для вас. Rutor.in неофициальное зеркало rutor. В случае если у Вас заблокирован rutor или вдруг Вы не можете на него зайти, то Вы без труда сможете скачать бесплатно и без рекламы последние новинки кино, игр, сериалов и прочего у нас, на Rutor.in. Не нужно использовать прокси, чтобы зайти на рутор, достаточно воспользоваться нашим ресурсом. Все новые фильмы, игры, сериалы, книги и музыка за 2013 и 2014 годы через торрент бесплатно. Скачивайте фильмы в хорошем качестве, игры для пк, xbox, playstation без регистрации. У нас вы найдете новые Зарубежные сериалы и Русские сериалы 2013, 2014, 2015 годов. Оставайтесь с нами, качайте любимые фильмы, игры, сериалы, книги и музыку.