img image001 image001 image001 image001 image001 image001 image001 image001 image001 image001 image001 image001 image001 image001 image001

Planets Sun Sun Sun
Статистика раздачи
Автор: Снежана | Размер: 4.37 ГБ | Добавлен: 24 июл 2013
Раздают: 55    Качают: 10
Скачать торрент
Скачать торрент
Описание торрента

СообщениеДобавлено: 24 июл 2013 

#77

Информация о фильме
Название: Ведьма
Год выхода: 2006
Жанр: Ужасы
Режиссер: Олег Фесенко.
В ролях: Ита Эвер, Евгения Крюкова, Валерий Николаев, Денис Беспалый, Юхан Ульфсак, Лембит Ульфсак, Андрей Градов, Тыну Карк, Арнис Лицитис, Рэйн Толк, Ян Реккор, Пеэтер Волконски, Ану Ламп, Кати Кивитар, Эпп Эеспаев, Маргус Прангель, Пиллэ Лукин, Кайдо Веермаэ, Приит Лоог, Гуидо Кангур...

О фильме:
Веселый и обаятельный журналист Айван известен своим пристрастием к светским тусовкам и публичным скандалам. А потому предложение босса отправиться исследовать природу загадочных явлений, происходящих в отдаленном городке, воспринимает без особого энтузиазма. Намереваясь побыстрее разделаться с досадным поручением, Айван отправляется в путь.
Однако к вечеру его автомобиль оказывается на заброшенной дороге, которая приводит героя к старому дому, где заблудившемуся путнику удается найти приют. Когда часы пробили полночь, на пороге комнаты появилась очаровательная девушка. Большой любитель женского общества, он пускает в ход все свое обаяние и быстро встречает взаимность. У Айвана и в мыслях нет, что объятия нежной девы обернутся настоящим кошмаром…



Страна: Россия
Продолжительность: 01:35:58
Перевод: Оригинал

Файл
Кодек: H264
Качество: BDRip 1080p
Видео: 1920x1040, 5884 Kbps, 29.970 fps
Звук: 48 kHz, AC3, 6c, 640 kbps
Субтитры: Нет
Скачать:

General
Unique ID : 191442159679432046065689641051914946080 (0x90066B361D6B22D88EBE494A4B0EC620)
Complete name : Ведьма.2006.BDRip.1080p.mkv
Format : Matroska
Format version : Version 2
File size : 4.37 GiB
Duration : 1h 35mn
Overall bit rate : 6 524 Kbps
Movie name : Ведьма.2006
Encoded date : UTC 2012-03-07 11:27:51
Writing application : mkvmerge v5.3.0 ('I could have danced') built on Mar 5 2012 16:04:53
Writing library : libebml v1.2.3 + libmatroska v1.3.0

Video
ID : 1
Format : AVC
Format/Info : Advanced Video Codec
Format profile : High@L4.1
Format settings, CABAC : Yes
Format settings, ReFrames : 4 frames
Codec ID : V_MPEG4/ISO/AVC
Duration : 1h 35mn
Bit rate : 5 884 Kbps
Width : 1 920 pixels
Height : 1 040 pixels
Display aspect ratio : 16:9
Frame rate mode : Variable
Frame rate : 29.970 fps
Color space : YUV
Chroma subsampling : 4:2:0
Bit depth : 8 bits
Scan type : Progressive
Bits/(Pixel*Frame) : 0.098
Stream size : 3.86 GiB (88%)
Title : Rip by Boriy
Writing library : x264 core 116 r2019M 9cc407d
Encoding settings : cabac=1 / ref=4 / deblock=1:0:0 / analyse=0x3:0x133 / me=umh / subme=10 / psy=1 / psy_rd=1.00:0.10 / mixed_ref=1 / me_range=32 / chroma_me=1 / trellis=2 / 8x8dct=1 / cqm=0 / deadzone=21,11 / fast_pskip=0 / chroma_qp_offset=-3 / threads=12 / sliced_threads=0 / nr=0 / decimate=1 / interlaced=0 / bluray_compat=0 / constrained_intra=0 / bframes=5 / b_pyramid=2 / b_adapt=2 / b_bias=0 / direct=3 / weightb=1 / open_gop=0 / weightp=2 / keyint=300 / keyint_min=30 / scenecut=40 / intra_refresh=0 / rc_lookahead=60 / rc=2pass / mbtree=1 / bitrate=5884 / ratetol=1.0 / qcomp=0.60 / qpmin=0 / qpmax=69 / qpstep=4 / cplxblur=20.0 / qblur=0.5 / ip_ratio=1.40 / aq=1:1.00
Language : English
Default : Yes
Forced : No

Audio
ID : 2
Format : AC-3
Format/Info : Audio Coding 3
Mode extension : CM (complete main)
Codec ID : A_AC3
Duration : 1h 35mn
Bit rate mode : Constant
Bit rate : 640 Kbps
Channel(s) : 6 channels
Channel positions : Front: L C R, Side: L R, LFE
Sampling rate : 48.0 KHz
Bit depth : 16 bits
Compression mode : Lossy
Stream size : 439 MiB (10%)
Title : Оригинал
Language : Russian
Default : Yes
Forced : No

Menu
00:00:00.000 : en:
00:03:53.232 : en:
00:09:06.879 : en:
00:13:06.585 : en:
00:15:30.429 : en:
00:18:24.036 : en:
00:21:14.139 : en:
00:26:40.732 : en:
00:29:47.352 : en:
00:31:56.814 : en:
00:36:56.080 : en:
00:40:58.689 : en:
00:46:39.630 : en:
00:50:23.286 : en:
00:53:45.522 : en:
00:57:29.746 : en:
01:00:06.302 : en:
01:05:37.700 : en:
01:09:46.715 : en:
01:14:26.595 : en:
01:18:58.200 : en:
01:21:46.868 : en:
01:25:41.336 : en:
01:32:51.432 : en:



   Похожие торренты   Торрент   Размер 
В этой теме нет новых непрочитанных сообщений. Ведьма (2006) BDRip от ExKinoRay

134 | 12

1.47 ГБ

В этой теме нет новых непрочитанных сообщений. Ведьма / Vedma / The Power of Fear (2006) BDRip от HQ-ViDEO

9 | 2

1.46 ГБ

В этой теме нет новых непрочитанных сообщений. Ведьма / Злой / The Wicked (2013) BDRip 1080p | L2

17 | 3

8.75 ГБ

В этой теме нет новых непрочитанных сообщений. Ведьма / The VVitch: A New-England Folktale (2015) BDRip 1080p | L

774 | 56

7.52 ГБ

В этой теме нет новых непрочитанных сообщений. Ведьма (2006) Blu-ray 1080i

10 | 19

21.82 ГБ

В этой теме нет новых непрочитанных сообщений. Ведьма / The VVitch: A New-England Folktale (2015) BDRip 1080p от ExKinoRay | L

39 | 4

12.48 ГБ

В этой теме нет новых непрочитанных сообщений. Ожившая ведьма / Ведьма / Noita palaa elämään / The witch (1952) DVDRip | Sub

77 | 24

1.11 ГБ




Вы не можете начинать темы
Вы не можете отвечать на сообщения
Вы не можете редактировать свои сообщения
Вы не можете удалять свои сообщения
Вы не можете добавлять вложения

Перейти:  
Для Мосгорсуда, Роскомнадзора и рекламодателей: mosgorsud-torrent[собачка]yandex.ru
 Вход
ppkBB3cker v.2 © 2008-2014 @ PPK
[ Time : 0.089s | 14 Queries | GZIP : Off ]
CGP output time : 0.104s | 7 Queries | GZIP : Off

Торрент трекер RUTOR.IN, Не можете зайти на rutor.org? Какой новый адрес рутор? Какое зеркало рутор? Не работает rutor.org и зеркала? Тогда наш торрент специально для вас. Rutor.in неофициальное зеркало rutor. В случае если у Вас заблокирован rutor или вдруг Вы не можете на него зайти, то Вы без труда сможете скачать бесплатно и без рекламы последние новинки кино, игр, сериалов и прочего у нас, на Rutor.in. Не нужно использовать прокси, чтобы зайти на рутор, достаточно воспользоваться нашим ресурсом. Все новые фильмы, игры, сериалы, книги и музыка за 2013 и 2014 годы через торрент бесплатно. Скачивайте фильмы в хорошем качестве, игры для пк, xbox, playstation без регистрации. У нас вы найдете новые Зарубежные сериалы и Русские сериалы 2013, 2014, 2015 годов. Оставайтесь с нами, качайте любимые фильмы, игры, сериалы, книги и музыку.