img image001 image001 image001 image001 image001 image001 image001 image001 image001 image001 image001 image001 image001 image001 image001

Planets Sun Sun Sun
Статистика раздачи
Автор: Снежана | Размер: 1.44 ГБ | Добавлен: 24 июл 2013
Раздают: 5    Качают: 4
Скачать торрент
Скачать торрент
Описание торрента

СообщениеДобавлено: 24 июл 2013 

4 дня в мае (2011) BDRip-AVC

Жанр: драма, военный
Страна: Россия , Германия , Украина
Режиссер: Ахим фон Боррис
В ролях: Павел Вензел, Алексей Гуськов, Иван Шведов, Андрей Мерзликин, Сергей Легостаев, Максим Ковалевский, Евгений Ситохин, Владимир Свирский, Григорий Добрыгин, Анджелина Хэнч
Сюжет фильма: Группу русских солдат отправляют в Северную Германию в конце Второй мировой войны, где они занимают детский дом в непосредственной близости от большой немецкой части. Несмотря на все разногласия здесь формируется дружба между немецким сиротой и бездетным советским капитаном.
Мировая премьера: 9 августа 2011
Российская премьера: 16 февраля 2012, «Парадиз»

Продолжительность: 01:37:18
Качество видео: BDRip-AVC
Видео: кодек: x264, размер кадра: 1024x556 , битрейт: 1745 кб/с, bit/pixel: 0.128
Аудио: язык: Русский , перевод: оригинал, кодек: AC3 5.1, битрейт: 384.00 кб/с

Общее
Уникальный идентификатор : 200539281351445057191785988190358183834 (0x96DE75F04EF0482FBD5A8A71EE2F9F9A)
Полное имя : D:4 dnya v maye.2011.BDRip-AVC.PT.mkv
Формат : Matroska
Версия формата : Version 2
Размер файла : 1,44 Гбайт
Продолжительность : 1 ч. 37 м.
Общий поток : 2125 Кбит/сек
Название фильма : 4 dnya v maye (2011) BDRip-AVC rip by rulya74
Дата кодирования : UTC 2012-03-11 06:23:20
Программа кодирования : mkvmerge v5.2.1 ('A Far Off Place') built on Jan 2 2012 23:21:10
Библиотека кодирования : libebml v1.2.3 + libmatroska v1.3.0
Видео
Идентификатор : 1
Формат : AVC
Формат/Информация : Advanced Video Codec
Профиль формата : High@L4.1
Параметр CABAC формата : Да
Параметр ReFrames формата : 9 кадров
Идентификатор кодека : V_MPEG4/ISO/AVC
Продолжительность : 1 ч. 37 м.
Битрейт : 1745 Кбит/сек
Ширина : 1024 пикселя
Высота : 556 пикселей
Соотношение сторон : 16:9
Частота кадров : 24,000 кадра/сек
Цветовое пространство : YUV
Субдискретизация насыщенности : 4:2:0
Битовая глубина : 8 бит
Тип развёртки : Прогрессивная
Бит/(Пиксели*Кадры) : 0.128
Размер потока : 1,15 Гбайт (80%)
Библиотека кодирования : x264 core 120 r2164 da19765
Настройки программы : cabac=1 / ref=9 / deblock=1:-3:-3 / analyse=0x3:0x113 / me=umh / subme=9 / psy=1 / psy_rd=1.00:0.00 / mixed_ref=1 / me_range=32 / chroma_me=1 / trellis=2 / 8x8dct=1 / cqm=0 / deadzone=21,11 / fast_pskip=1 / chroma_qp_offset=-2 / threads=6 / sliced_threads=0 / nr=0 / decimate=1 / interlaced=0 / bluray_compat=0 / constrained_intra=0 / bframes=8 / b_pyramid=2 / b_adapt=1 / b_bias=0 / direct=3 / weightb=1 / open_gop=0 / weightp=2 / keyint=240 / keyint_min=22 / scenecut=40 / intra_refresh=0 / rc=2pass / mbtree=0 / bitrate=1745 / ratetol=1.0 / qcomp=0.60 / qpmin=10 / qpmax=51 / qpstep=4 / cplxblur=20.0 / qblur=0.5 / ip_ratio=1.40 / pb_ratio=1.30 / aq=1:1.00
Default : Да
Forced : Нет
Аудио
Идентификатор : 2
Формат : AC-3
Формат/Информация : Audio Coding 3
Расширение режима : CM (complete main)
Идентификатор кодека : A_AC3
Продолжительность : 1 ч. 37 м.
Вид битрейта : Постоянный
Битрейт : 384 Кбит/сек
Каналы : 6 каналов
Расположение каналов : Front: L C R, Side: L R, LFE
Частота : 48,0 КГц
Битовая глубина : 16 бит
Метод сжатия : С потерями
Размер потока : 267 Мбайт (18%)
Заголовок : Оригинал
Язык : Russian
Default : Да
Forced : Нет




   Похожие торренты   Торрент   Размер 
В этой теме нет новых непрочитанных сообщений. Фея / La fée (2011) BDRip-AVC от Rulya74

104 | 12

1.09 ГБ

В этой теме нет новых непрочитанных сообщений. Ёлки 2 (2011) BDRip-AVC от Rulya74

31 | 2

1.45 ГБ

В этой теме нет новых непрочитанных сообщений. Рыжий пес / Red Dog (2011) BDRip от Rulya74

25 | 5

2.05 ГБ

В этой теме нет новых непрочитанных сообщений. Мишень (2011) BDRip-AVC от Rulya74

6 | 10

2.17 ГБ

В этой теме нет новых непрочитанных сообщений. Мой путь / Mai wei (2011) BDRip-AVC от Rulya74

25 | 3

1.45 ГБ

В этой теме нет новых непрочитанных сообщений. Липучка / Flypaper (2011) BDRip от Rulya74

121 | 3

2.05 ГБ

В этой теме нет новых непрочитанных сообщений. Для Чувств 2 / Forsenses II (2011) BDRip от Rulya74

4 | 4

980.98 МБ




Вы не можете начинать темы
Вы не можете отвечать на сообщения
Вы не можете редактировать свои сообщения
Вы не можете удалять свои сообщения
Вы не можете добавлять вложения

Перейти:  
Для Мосгорсуда, Роскомнадзора и рекламодателей: mosgorsud-torrent[собачка]yandex.ru
 Вход
ppkBB3cker v.2 © 2008-2014 @ PPK
[ Time : 0.113s | 15 Queries | GZIP : Off ]

Торрент трекер RUTOR.IN, Не можете зайти на rutor.org? Какой новый адрес рутор? Какое зеркало рутор? Не работает rutor.org и зеркала? Тогда наш торрент специально для вас. Rutor.in неофициальное зеркало rutor. В случае если у Вас заблокирован rutor или вдруг Вы не можете на него зайти, то Вы без труда сможете скачать бесплатно и без рекламы последние новинки кино, игр, сериалов и прочего у нас, на Rutor.in. Не нужно использовать прокси, чтобы зайти на рутор, достаточно воспользоваться нашим ресурсом. Все новые фильмы, игры, сериалы, книги и музыка за 2013 и 2014 годы через торрент бесплатно. Скачивайте фильмы в хорошем качестве, игры для пк, xbox, playstation без регистрации. У нас вы найдете новые Зарубежные сериалы и Русские сериалы 2013, 2014, 2015 годов. Оставайтесь с нами, качайте любимые фильмы, игры, сериалы, книги и музыку.
cron