img image001 image001 image001 image001 image001 image001 image001 image001 image001 image001 image001 image001 image001 image001 image001

Planets Sun Sun Sun
Статистика раздачи
Автор: Снежана | Размер: 2.18 ГБ | Добавлен: 24 июл 2013
Раздают: 375    Качают: 24
Скачать торрент
Скачать торрент
Описание торрента

СообщениеДобавлено: 24 июл 2013 

#77

Жанр: драма, военный, история
Страна: СССР
Режиссер: Станислав Ростоцкий
В ролях: Андрей Мартынов, Ирина Шевчук, Ольга Остроумова, Елена Драпеко, Ирина Долганова, Екатерина Маркова, Людмила Зайцева, Алексей Чернов, Алла Мещерякова, Нина Емельянова, Юрий Сорокин, Борис Токарев, Георгий Мартынюк, Кирилл Столяров, Игорь Костолевский, Владимир Ивашов, Виктор Авдюшко, Ирина Кмит, Наталья Пярн, Владимир Рудый, Евгений Меньшов, Светлана Борисова

Сюжет фильма: В прифронтовой полосе группа девушек-зенитчиц вынуждена вступить в неравный бой с вражескими десантниками. Эти девчонки мечтали о большой любви, нежности, семейном тепле — но на их долю выпала жестокая война, и они до конца выполнили свой воинский долг…

Мировая премьера: 4 ноября 1972



Важно! Издание от IceStorm (Германия). Титры на немецком языке. Заменена только звуковая дорожка. Неплохая четкость, хорошая цветопередача и высокий контраст делают эту редакцию легендарной картины самой качественной и полной на сегодняшний день, в отличии от вышедшей в России лицензии от Ruscico, где хуже изображение и вырезано много моментов (продолжительность составляет всего лишь 02:37:46). Сравнительный обзор приведен здесь.

Личная оценка: 10 - всем советую
Продолжительность: 03:00:07 (01:34:13 + 01:25:54)
Качество видео: DVDRip (рип c 2xDVD5)
Видео: кодек: XviD, размер кадра: 704x288, битрейт: 1536 кб/с, 1526 кб/с, bit/pixel: 0.303, 0.301
Аудио: язык: Русский, перевод: оригинал, кодек: AC3 2.0, битрейт: 192 кб/с

Релиз группы: Автор рипа:

Общее
Формат : AVI
Формат/Информация : Audio Video Interleave
Размер файла : 1,14 Гбайт
Продолжительность : 1 ч. 34 м.
Общий поток : 1738 Кбит/сек
Название фильма : А зори здесь тихие (1-я серия) [Полная широкоэкранная версия] (1972) DVDRip
Режиссёр : tise
Библиотека кодирования : VirtualDub-MPEG2 build 24586/release
Правообладатель : www.powertracker.org

Видео
Идентификатор : 0
Формат : MPEG-4 Visual
Профиль формата : Advanced Simple@L5
Параметр BVOP формата : 2
Параметр QPel формата : Нет
Параметр GMC формата : Без точки перехода
Параметр матрицы формата : Default (MPEG)
Идентификатор кодека : XVID
Идентификатор кодека/Подсказка : XviD
Продолжительность : 1 ч. 34 м.
Битрейт : 1536 Кбит/сек
Ширина : 704 пикселя
Высота : 288 пикселей
Соотношение сторон : 2,40:1
Частота кадров : 25,000 кадров/сек
Цветовое пространство : YUV
Субдискретизация насыщенности : 4:2:0
Битовая глубина : 8 бит
Тип развёртки : Прогрессивная
Метод сжатия : С потерями
Бит/(Пиксели*Кадры) : 0.303
Размер потока : 1,01 Гбайт (88%)
Библиотека кодирования : XviD 1.2.1 (UTC 2008-12-04)

Аудио
Идентификатор : 1
Формат : AC-3
Формат/Информация : Audio Coding 3
Расширение режима : CM (complete main)
Идентификатор кодека : 2000
Продолжительность : 1 ч. 34 м.
Вид битрейта : Постоянный
Битрейт : 192 Кбит/сек
Каналы : 2 канала
Расположение каналов : Front: L R
Частота : 48,0 КГц
Битовая глубина : 16 бит
Метод сжатия : С потерями
Размер потока : 129 Мбайт (11%)
Выравнивание : Разделение по промежуткам
Продолжительность промежутка : 40 мс. (1,00 видеокадр)
Время предзагрузки промежутка : 500 мс.

Общее
Формат : AVI
Формат/Информация : Audio Video Interleave
Размер файла : 1,04 Гбайт
Продолжительность : 1 ч. 25 м.
Общий поток : 1728 Кбит/сек
Название фильма : А зори здесь тихие (2-я серия) [Полная широкоэкранная версия] (1972) DVDRip
Режиссёр : tise
Библиотека кодирования : VirtualDub-MPEG2 build 24586/release
Правообладатель : www.powertracker.org

Видео
Идентификатор : 0
Формат : MPEG-4 Visual
Профиль формата : Advanced Simple@L5
Параметр BVOP формата : 2
Параметр QPel формата : Нет
Параметр GMC формата : Без точки перехода
Параметр матрицы формата : Default (MPEG)
Идентификатор кодека : XVID
Идентификатор кодека/Подсказка : XviD
Продолжительность : 1 ч. 25 м.
Битрейт : 1526 Кбит/сек
Ширина : 704 пикселя
Высота : 288 пикселей
Соотношение сторон : 2,40:1
Частота кадров : 25,000 кадров/сек
Цветовое пространство : YUV
Субдискретизация насыщенности : 4:2:0
Битовая глубина : 8 бит
Тип развёртки : Прогрессивная
Метод сжатия : С потерями
Бит/(Пиксели*Кадры) : 0.301
Размер потока : 938 Мбайт (88%)
Библиотека кодирования : XviD 1.2.1 (UTC 2008-12-04)

Аудио
Идентификатор : 1
Формат : AC-3
Формат/Информация : Audio Coding 3
Расширение режима : CM (complete main)
Идентификатор кодека : 2000
Продолжительность : 1 ч. 25 м.
Вид битрейта : Постоянный
Битрейт : 192 Кбит/сек
Каналы : 2 канала
Расположение каналов : Front: L R
Частота : 48,0 КГц
Битовая глубина : 16 бит
Метод сжатия : С потерями
Размер потока : 118 Мбайт (11%)
Выравнивание : Разделение по промежуткам
Продолжительность промежутка : 40 мс. (1,00 видеокадр)
Время предзагрузки промежутка : 500 мс.





   Похожие торренты   Торрент   Размер 
В этой теме нет новых непрочитанных сообщений. А зори здесь тихие (1972) DVDRip-AVC от PowerTracker | Полная широкоэкранная версия

598 | 20

2.9 ГБ

В этой теме нет новых непрочитанных сообщений. ...А зори здесь тихие (1972) DVDRip от Scarabey | Полная версия

669 | 25

1.41 ГБ

В этой теме нет новых непрочитанных сообщений. ...А зори здесь тихие (1972) DVDRip от Scarabey | Полная версия

1166 | 58

2.83 ГБ

В этой теме нет новых непрочитанных сообщений. А зори здесь тихие (1972) VHSRip | Полная версия

123 | 11

1.45 ГБ

В этой теме нет новых непрочитанных сообщений. А зори здесь тихие (1972) VHSRip | Полная версия

294 | 12

2.93 ГБ

В этой теме нет новых непрочитанных сообщений. А зори здесь тихие (1972) DVDRip by гаврила

126 | 11

1.37 ГБ

В этой теме нет новых непрочитанных сообщений. А зори здесь тихие (1972) DVDRip от Youtracker

362 | 12

1.45 ГБ




Вы не можете начинать темы
Вы не можете отвечать на сообщения
Вы не можете редактировать свои сообщения
Вы не можете удалять свои сообщения
Вы не можете добавлять вложения

Перейти:  
Для Мосгорсуда, Роскомнадзора и рекламодателей: mosgorsud-torrent[собачка]yandex.ru
 Вход
ppkBB3cker v.2 © 2008-2014 @ PPK
[ Time : 0.024s | 13 Queries | GZIP : Off ]
CGP output time : 0.069s | 5 Queries | GZIP : Off

Торрент трекер RUTOR.IN, Не можете зайти на rutor.org? Какой новый адрес рутор? Какое зеркало рутор? Не работает rutor.org и зеркала? Тогда наш торрент специально для вас. Rutor.in неофициальное зеркало rutor. В случае если у Вас заблокирован rutor или вдруг Вы не можете на него зайти, то Вы без труда сможете скачать бесплатно и без рекламы последние новинки кино, игр, сериалов и прочего у нас, на Rutor.in. Не нужно использовать прокси, чтобы зайти на рутор, достаточно воспользоваться нашим ресурсом. Все новые фильмы, игры, сериалы, книги и музыка за 2013 и 2014 годы через торрент бесплатно. Скачивайте фильмы в хорошем качестве, игры для пк, xbox, playstation без регистрации. У нас вы найдете новые Зарубежные сериалы и Русские сериалы 2013, 2014, 2015 годов. Оставайтесь с нами, качайте любимые фильмы, игры, сериалы, книги и музыку.