img image001 image001 image001 image001 image001 image001 image001 image001 image001 image001 image001 image001 image001 image001 image001

Planets Sun Sun Sun
Статистика раздачи
Автор: Снежана | Размер: 1.46 ГБ | Добавлен: 24 июл 2013
Раздают: 21    Качают: 4
Скачать торрент
Скачать торрент
Описание торрента

СообщениеДобавлено: 24 июл 2013 

#77

Информация о фильме
Название: Страна глухих
Год выхода: 1998
Жанр: драма, комедия, криминал
Режиссер: Валерий Тодоровский
В ролях: Чулпан Хаматова, Дина Корзун, Максим Суханов, Никита Тюнин, Сергей Юшкевич, Александр Яцко, Ярослав Бойко, Олег Валкман, Алексей Горбунов, Валерий Иваков, Эвклид Кюрдзидис, Алексей Дьяков, Павел Поймалов

О фильме:
Героиня фильма — Рита вынуждена скрываться; ее друг Алеша исчез, проиграв в рулетку чужие деньги. Ее спасает и прячет у себя глухая танцовщица ночного клуба Яя, живущая единственной мечтой — накопить денег и уехать в некую сказочную «страну глухих» где живут только глухие люди и поэтому царит добро и справедливость.

Неожиданно девушки оказываются в центре жестокого столкновения двух кланов мафии, глухих и слышащих…

Страна: Россия, Франция
Продолжительность: 01:54:18
Перевод: Не требуется

Файл
Кодек: XviD / AC3
Качество: DVDRip
Видео: XviD, 720x432 (1.667), 25.000 fps, 1 372 Kbps (0.176 bit/pixel)
Звук: AC-3, 48.0 KHz, 6 ch, 448 Kbps, CBR (Russian)

General
Complete name : E:Strana.glukhikh_DVDRip.1400_[Rutor.org].avi
Format : AVI
Format/Info : Audio Video Interleave
File size : 1.46 GiB
Duration : 1h 54mn
Overall bit rate : 1 827 Kbps
Writing application : VirtualDubMod 1.5.4.1 (build 2178/release)
Writing library : VirtualDubMod build 2178/release

Video
ID : 0
Format : MPEG-4 Visual
Format profile : Advanced Simple@L5
Format settings, BVOP : 1
Format settings, QPel : No
Format settings, GMC : No warppoints
Format settings, Matrix : Custom
Codec ID : XVID
Codec ID/Hint : XviD
Duration : 1h 54mn
Bit rate : 1 372 Kbps
Width : 720 pixels
Height : 432 pixels
Display aspect ratio : 1.667
Frame rate : 25.000 fps
Color space : YUV
Chroma subsampling : 4:2:0
Bit depth : 8 bits
Scan type : Progressive
Compression mode : Lossy
Bits/(Pixel*Frame) : 0.176
Stream size : 1.10 GiB (75%)
Writing library : XviD 64

Audio
ID : 1
Format : AC-3
Format/Info : Audio Coding 3
Mode extension : CM (complete main)
Codec ID : 2000
Duration : 1h 54mn
Bit rate mode : Constant
Bit rate : 448 Kbps
Channel(s) : 6 channels
Channel positions : Front: L C R, Side: L R, LFE
Sampling rate : 48.0 KHz
Bit depth : 16 bits
Compression mode : Lossy
Delay relative to video : 80ms
Stream size : 366 MiB (25%)
Alignment : Split accross interleaves
Interleave, duration : 96 ms (2.40 video frames)
Interleave, preload duration : 96 ms
Language : Russian




   Похожие торренты   Торрент   Размер 
В этой теме нет новых непрочитанных сообщений. Страна глухих (1998) DVDRip

57 | 3

2 ГБ

В этой теме нет новых непрочитанных сообщений. Страна глухих (1998) DVDRip

3 | 4

746.03 МБ

В этой теме нет новых непрочитанных сообщений. Страна глухих (1997) DVDRip от New-Team

242 | 34

1.46 ГБ

В этой теме нет новых непрочитанных сообщений. Страна глухих (1997) DVDRip от New-Team

8 | 6

745.22 МБ

В этой теме нет новых непрочитанных сообщений. Страна глухих (1997) DVDRip-AVC от New-Team

66 | 8

1.45 ГБ

В этой теме нет новых непрочитанных сообщений. Свободная страна / Land of the Free (1998) DVDRip | A

43 | 5

1.22 ГБ

В этой теме нет новых непрочитанных сообщений. Страна холмов и долин / The Hi-Lo Country (1998) DVDRip от Scarabey | P

77 | 7

1.45 ГБ




Вы не можете начинать темы
Вы не можете отвечать на сообщения
Вы не можете редактировать свои сообщения
Вы не можете удалять свои сообщения
Вы не можете добавлять вложения

Перейти:  
Для Мосгорсуда, Роскомнадзора и рекламодателей: mosgorsud-torrent[собачка]yandex.ru
 Вход
ppkBB3cker v.2 © 2008-2014 @ PPK
[ Time : 0.039s | 15 Queries | GZIP : Off ]

Торрент трекер RUTOR.IN, Не можете зайти на rutor.org? Какой новый адрес рутор? Какое зеркало рутор? Не работает rutor.org и зеркала? Тогда наш торрент специально для вас. Rutor.in неофициальное зеркало rutor. В случае если у Вас заблокирован rutor или вдруг Вы не можете на него зайти, то Вы без труда сможете скачать бесплатно и без рекламы последние новинки кино, игр, сериалов и прочего у нас, на Rutor.in. Не нужно использовать прокси, чтобы зайти на рутор, достаточно воспользоваться нашим ресурсом. Все новые фильмы, игры, сериалы, книги и музыка за 2013 и 2014 годы через торрент бесплатно. Скачивайте фильмы в хорошем качестве, игры для пк, xbox, playstation без регистрации. У нас вы найдете новые Зарубежные сериалы и Русские сериалы 2013, 2014, 2015 годов. Оставайтесь с нами, качайте любимые фильмы, игры, сериалы, книги и музыку.