img image001 image001 image001 image001 image001 image001 image001 image001 image001 image001 image001 image001 image001 image001 image001

Planets Sun Sun Sun
Статистика раздачи
Автор: Снежана | Размер: 4.37 ГБ | Добавлен: 24 июл 2013
Раздают: 21    Качают: 12
Скачать торрент
Скачать торрент
Описание торрента

СообщениеДобавлено: 24 июл 2013 

#77

Информация о фильме
Название: Ласковый май
Год выхода: 2009
Жанр: Драма, биография
Режиссер: Владимир Виноградов
В ролях: Вячеслав Манучаров, Дмитрий Блохин, Виктор Вержбицкий, Людмила Зайцева, Раиса Конюхова, Максим Костромыкин, Максим Литовченко, Инга Стрелкова-Оболдина, Марина Орел, Раиса Рязанова, Петр Скворцов, Владимир Стеклов, Екатерина Федулова, Василий Белокопытов, Виктория Матвеева, Сергей Романович, Иван Агапов, Юрий Шатунов, Андрей Разин...

О фильме:
В 1985 году в Советском Союзе началась перестройка и появилась группа "Ласковый май". На их концертах были только аншлаги, от неразделенной любви к ним совершались самоубийства. Фигура Михаила Горбачева меркла в лучах славы создателя "Ласкового мая" — Андрея Разина. Случайно сделанная фотография на пляже, где Андрей Разин, будучи ребенком, запечатлен с семьей Горбачевых, перевернула его судьбу. Именно с помощью этой фотографии он стал племянником Горбачева. Он заявил об этом не впрямую — так, намекнул, и ему мгновенно поверили. Функционеры всех рангов действовали без промедления: перед ним распахнулись двери телевидения и радио, советская эстрада легла к его ногам. Разин ездил по всем детским домам Советского Союза в поисках одаренных детей для своих групп-двойников. "Ласковый май" гастролировал одновременно в нескольких городах, давая в день по 5—6 концертов. За все десять лет существования группы не было ни одного не проданного или сданного билета, каждый пятый житель СССР побывал на их концертах.



Страна: Россия
Продолжительность: 01:54:48
Перевод: Оригинал

Файл
Кодек: H264
Качество: BDRip 1080p
Видео: 1920x1080, 5060 Kbps, 23.976 fps
Звук: 48 kHz, AC3, 6c, 384 kbps
Субтитры: Нет

Семпл



Общее
Формат : Matroska
Версия формата : Version 2
Размер файла : 4,37 Гбайт
Продолжительность : 1 ч. 54 м.
Общий поток : 5445 Кбит/сек
Название фильма : Ласковый май (2009) BDRip 1080р от Dimok
Дата кодирования : UTC 2012-03-13 05:04:33
Программа кодирования : mkvmerge v5.4.0 ('Piper') built on Mar 10 2012 13:34:39
Библиотека кодирования : libebml v1.2.3 + libmatroska v1.3.0

Видео
Идентификатор : 1
Формат : AVC
Формат/Информация : Advanced Video Codec
Профиль формата : High@L4.1
Параметр CABAC формата : Да
Параметр ReFrames формата : 4 кадра
Идентификатор кодека : V_MPEG4/ISO/AVC
Продолжительность : 1 ч. 54 м.
Битрейт : 5060 Кбит/сек
Ширина : 1920 пикселей
Высота : 1080 пикселей
Соотношение сторон : 16:9
Частота кадров : 23,976 кадра/сек
Цветовое пространство : YUV
Субдискретизация насыщенности : 4:2:0
Битовая глубина : 8 бит
Тип развёртки : Прогрессивная
Бит/(Пиксели*Кадры) : 0.102
Размер потока : 3,97 Гбайт (91%)
Библиотека кодирования : x264 core 120 r2164+656 2ff844c
Настройки программы : cabac=1 / ref=4 / deblock=1:0:0 / analyse=0x3:0x133 / me=umh / subme=10 / psy=1 / fade_compensate=0.00 / psy_rd=1.00:0.10 / mixed_ref=1 / me_range=32 / chroma_me=1 / trellis=2 / 8x8dct=1 / cqm=0 / deadzone=21,11 / fast_pskip=0 / chroma_qp_offset=-3 / threads=6 / sliced_threads=0 / nr=0 / decimate=1 / interlaced=0 / bluray_compat=0 / constrained_intra=0 / fgo=0 / bframes=6 / b_pyramid=2 / b_adapt=2 / b_bias=0 / direct=3 / weightb=1 / open_gop=0 / weightp=2 / keyint=240 / keyint_min=24 / scenecut=40 / intra_refresh=0 / rc_lookahead=60 / rc=2pass / mbtree=1 / bitrate=5060 / ratetol=1.0 / qcomp=0.60 / qpmin=0 / qpmax=69 / qpstep=4 / cplxblur=20.0 / qblur=0.5 / ip_ratio=1.40 / aq=1:1.00
Язык : Russian

Аудио
Идентификатор : 2
Формат : AC-3
Формат/Информация : Audio Coding 3
Расширение режима : CM (complete main)
Идентификатор кодека : A_AC3
Продолжительность : 1 ч. 54 м.
Вид битрейта : Постоянный
Битрейт : 384 Кбит/сек
Каналы : 6 каналов
Расположение каналов : Front: L C R, Side: L R, LFE
Частота : 48,0 КГц
Битовая глубина : 16 бит
Метод сжатия : С потерями
Размер потока : 315 Мбайт (7%)
Заголовок : Оригинал
Язык : Russian



   Похожие торренты   Торрент   Размер 
В этой теме нет новых непрочитанных сообщений. Ласковый май (2009) BDRip 1080p от ExKinoRay

23 | 4

13.31 ГБ

В этой теме нет новых непрочитанных сообщений. Ласковый май / Laskovyy may (2009) BDRip 1080p

1 | 3

7.79 ГБ

В этой теме нет новых непрочитанных сообщений. Ласковый май (2009) Blu-ray Remux (1080p) от ivandubskoj | Лицензия

43 | 15

17.15 ГБ

В этой теме нет новых непрочитанных сообщений. Ласковый май (2009) BDRip от HQ-VIDEO

9 | 8

2.18 ГБ

В этой теме нет новых непрочитанных сообщений. Ласковый май (2009) BDRip | Лицензия

126 | 14

749.82 МБ

В этой теме нет новых непрочитанных сообщений. Ласковый май (2009) BDRip от HQCLUB

3 | 5

2.18 ГБ

В этой теме нет новых непрочитанных сообщений. Ласковый май (2009) BDRip от HELLYWOOD

10 | 4

2.12 ГБ




Вы не можете начинать темы
Вы не можете отвечать на сообщения
Вы не можете редактировать свои сообщения
Вы не можете удалять свои сообщения
Вы не можете добавлять вложения

Перейти:  
Для Мосгорсуда, Роскомнадзора и рекламодателей: mosgorsud-torrent[собачка]yandex.ru
 Вход
ppkBB3cker v.2 © 2008-2014 @ PPK
[ Time : 0.037s | 16 Queries | GZIP : Off ]

Торрент трекер RUTOR.IN, Не можете зайти на rutor.org? Какой новый адрес рутор? Какое зеркало рутор? Не работает rutor.org и зеркала? Тогда наш торрент специально для вас. Rutor.in неофициальное зеркало rutor. В случае если у Вас заблокирован rutor или вдруг Вы не можете на него зайти, то Вы без труда сможете скачать бесплатно и без рекламы последние новинки кино, игр, сериалов и прочего у нас, на Rutor.in. Не нужно использовать прокси, чтобы зайти на рутор, достаточно воспользоваться нашим ресурсом. Все новые фильмы, игры, сериалы, книги и музыка за 2013 и 2014 годы через торрент бесплатно. Скачивайте фильмы в хорошем качестве, игры для пк, xbox, playstation без регистрации. У нас вы найдете новые Зарубежные сериалы и Русские сериалы 2013, 2014, 2015 годов. Оставайтесь с нами, качайте любимые фильмы, игры, сериалы, книги и музыку.
cron