img image001 image001 image001 image001 image001 image001 image001 image001 image001 image001 image001 image001 image001 image001 image001

Planets Sun Sun Sun
Статистика раздачи
Автор: Снежана | Размер: 1.37 ГБ | Добавлен: 24 июл 2013
Раздают: 18    Качают: 5
Скачать торрент
Скачать торрент
Описание торрента

СообщениеДобавлено: 24 июл 2013 

#77

Информация о фильме
Название: Ехали два шофера
Год выхода: 2001
Жанр: мелодрама, комедия
Режиссер: Александр Котт
В ролях: Павел Деревянко, Ирина Рахманова, Валерий Иваков, Владимир Романовский, Юлия Бутакова, Валерий Величко, Надежда Озерова, Сергей Ермолюк, Софья Тиунова, Виктор Соловьев, Елена Посоюзных, Генрих Ронкин, Людмила Николаева, Вячеслав Кириличев, Вероника Белковская, Лев Шубин, Светлана Коробова

О фильме:
Случилась эта история в радостные послепобедные дни. Ездил по уральским дорогам лихой водитель Колька Снегирев, и была у него подруга — старенькая машина «Амо». И любил ее Колька больше всего на свете, а на женщин смотрел он снисходительно, как на вещь глупую, но для культурного отдыха полезную.

Так бы и жил он, пока не повстречалась на его дороге Райка — девушка гордая и неприступная, хозяйка шикарного, доставшегося по ленд-лизу «Форда».

Страна: Россия
Продолжительность: 01:16:36
Перевод: Не требуется

Файл
Кодек: XviD / AC3
Качество: DVDRip
Видео: XviD, 720x448 (1.607), 25.000 fps, 2 108 Kbps (0.261 bit/pixel)
Звук: AC-3, 48.0 KHz, 6 ch, 448 Kbps, CBR

General
Complete name : E:Exali.dva.shofera.2001.DVDRip.avi
Format : AVI
Format/Info : Audio Video Interleave
File size : 1.37 GiB
Duration : 1h 16mn
Overall bit rate : 2 563 Kbps
Writing application : VirtualDubMod 1.5.4.1 (build 2178/release)
Writing library : VirtualDubMod build 2178/release

Video
ID : 0
Format : MPEG-4 Visual
Format profile : Advanced Simple@L5
Format settings, BVOP : 1
Format settings, QPel : No
Format settings, GMC : No warppoints
Format settings, Matrix : Custom
Codec ID : XVID
Codec ID/Hint : XviD
Duration : 1h 16mn
Bit rate : 2 108 Kbps
Width : 720 pixels
Height : 448 pixels
Display aspect ratio : 1.607
Frame rate : 25.000 fps
Color space : YUV
Chroma subsampling : 4:2:0
Bit depth : 8 bits
Scan type : Progressive
Compression mode : Lossy
Bits/(Pixel*Frame) : 0.261
Stream size : 1.13 GiB (82%)
Writing library : XviD 1.2.1 (UTC 2008-12-04)

Audio
ID : 1
Format : AC-3
Format/Info : Audio Coding 3
Mode extension : CM (complete main)
Codec ID : 2000
Duration : 1h 16mn
Bit rate mode : Constant
Bit rate : 448 Kbps
Channel(s) : 6 channels
Channel positions : Front: L C R, Side: L R, LFE
Sampling rate : 48.0 KHz
Bit depth : 16 bits
Compression mode : Lossy
Stream size : 245 MiB (17%)
Alignment : Split accross interleaves
Interleave, duration : 96 ms (2.40 video frames)
Interleave, preload duration : 96 ms




   Похожие торренты   Торрент   Размер 
В этой теме нет новых непрочитанных сообщений. Ехали два шофера (2001) DVD5

3 | 5

4.22 ГБ

В этой теме нет новых непрочитанных сообщений. Ехали мы, ехали... (1962) TVRip

10 | 5

665.88 МБ

В этой теме нет новых непрочитанных сообщений. Ехали мы, ехали... (1962) DVB

89 | 13

2.2 ГБ

В этой теме нет новых непрочитанных сообщений. Ехали в трамвае Ильф и Петров (1971) DVDRip от Киномагия

18 | 16

1.42 ГБ

В этой теме нет новых непрочитанных сообщений. 2001 Маньяк / 2001 Maniacs (2005) DVDRip

111 | 13

1.37 ГБ

В этой теме нет новых непрочитанных сообщений. 2001 год: Космическая одиссея / 2001: A Space Odyssey (1968) BDRip от Deadmauvlad | D

457 | 37

1.45 ГБ

В этой теме нет новых непрочитанных сообщений. Космическая Одиссея 2001 / 2001: A Space Odyssey (1968) BDRip от HQCLUB

29 | 9

2.98 ГБ




Вы не можете начинать темы
Вы не можете отвечать на сообщения
Вы не можете редактировать свои сообщения
Вы не можете удалять свои сообщения
Вы не можете добавлять вложения

Перейти:  
Для Мосгорсуда, Роскомнадзора и рекламодателей: mosgorsud-torrent[собачка]yandex.ru
 Вход
ppkBB3cker v.2 © 2008-2014 @ PPK
[ Time : 0.067s | 14 Queries | GZIP : Off ]

Торрент трекер RUTOR.IN, Не можете зайти на rutor.org? Какой новый адрес рутор? Какое зеркало рутор? Не работает rutor.org и зеркала? Тогда наш торрент специально для вас. Rutor.in неофициальное зеркало rutor. В случае если у Вас заблокирован rutor или вдруг Вы не можете на него зайти, то Вы без труда сможете скачать бесплатно и без рекламы последние новинки кино, игр, сериалов и прочего у нас, на Rutor.in. Не нужно использовать прокси, чтобы зайти на рутор, достаточно воспользоваться нашим ресурсом. Все новые фильмы, игры, сериалы, книги и музыка за 2013 и 2014 годы через торрент бесплатно. Скачивайте фильмы в хорошем качестве, игры для пк, xbox, playstation без регистрации. У нас вы найдете новые Зарубежные сериалы и Русские сериалы 2013, 2014, 2015 годов. Оставайтесь с нами, качайте любимые фильмы, игры, сериалы, книги и музыку.