img image001 image001 image001 image001 image001 image001 image001 image001 image001 image001 image001 image001 image001 image001 image001

Planets Sun Sun Sun
Статистика раздачи
Автор: Снежана | Размер: 747.11 МБ | Добавлен: 24 июл 2013
Раздают: 13    Качают: 2
Скачать торрент
Скачать торрент
Описание торрента

СообщениеДобавлено: 24 июл 2013 

#77

Информация о фильме
Название: Отдамся в хорошие руки
Год выхода: 2009
Жанр: комедия
Режиссер: Наталия Полякова
В ролях: Денис Никифоров, Рената Литвинова, Марат Башаров, Екатерина Кудринская, Виталий Хаев, Алексей Горбунов, Наталья Коляканова, Евгений Коряковский, Александр Лыков, Евгений Сахаров

О фильме:
Юная синеглазая красотка Маша живет с двумя братьями в странном доме на берегу Черного моря. Их мать отправилась на поиски лучшей жизни, а семейству Солнцевых приходится выживать самостоятельно. В поисках средств к существованию, Маша и ее братья попадают в водоворот разнообразных приключений. В череде событий мелькает богатый француз и погоня за ним с целью замужества, и семейка безбашенных соседей во главе с суровым папашей, и парочка влюбленных в Машу милиционеров, а так же байкеры, вооруженное ограбление, угон машины и незаконное пересечение границы. Все это — далеко не полный список приключений семьи Солнцевых на фоне крымских пейзажей. А в конце, как в сказке, героиня находит свою любовь.

Страна: Россия
Продолжительность: 01:42:24
Перевод: Не требуется

Файл
Кодек: XviD / MP3
Качество: DVDRip
Видео: XviD, 672x288 (2.35:1), 25.000 fps, 885 Kbps (0.183 bit/pixel)
Звук: MP3, 48.0 KHz, 2 ch, 128 Kbps, CBR (Russian)

General
Complete name : E:Otdamsya.v.khoroshie.ruki_DVDRip.745_[Rutor.org].avi
Format : AVI
Format/Info : Audio Video Interleave
File size : 747 MiB
Duration : 1h 42mn
Overall bit rate : 1 020 Kbps
Writing application : VirtualDubMod 1.5.4.1 (build 2178/release)
Writing library : VirtualDubMod build 2178/release

Video
ID : 0
Format : MPEG-4 Visual
Format profile : Advanced Simple@L5
Format settings, BVOP : 1
Format settings, QPel : No
Format settings, GMC : No warppoints
Format settings, Matrix : Custom
Codec ID : XVID
Codec ID/Hint : XviD
Duration : 1h 42mn
Bit rate : 885 Kbps
Width : 672 pixels
Height : 288 pixels
Display aspect ratio : 2.35:1
Frame rate : 25.000 fps
Color space : YUV
Chroma subsampling : 4:2:0
Bit depth : 8 bits
Scan type : Progressive
Compression mode : Lossy
Bits/(Pixel*Frame) : 0.183
Stream size : 648 MiB (87%)
Writing library : XviD 64

Audio
ID : 1
Format : MPEG Audio
Format version : Version 1
Format profile : Layer 3
Mode : Joint stereo
Codec ID : 55
Codec ID/Hint : MP3
Duration : 1h 42mn
Bit rate mode : Constant
Bit rate : 128 Kbps
Channel(s) : 2 channels
Sampling rate : 48.0 KHz
Compression mode : Lossy
Stream size : 93.7 MiB (13%)
Alignment : Aligned on interleaves
Interleave, duration : 80 ms (2.00 video frames)
Interleave, preload duration : 504 ms
Writing library : LAME3.99r
Encoding settings : -m j -V 4 -q 2 -lowpass 17 -b 128
Language : Russian




   Похожие торренты   Торрент   Размер 
В этой теме нет новых непрочитанных сообщений. Отдамся в хорошие руки (2009) DVDRip

71 | 7

1.46 ГБ

В этой теме нет новых непрочитанных сообщений. Догнать брюнетку / Отдамся в хорошие руки (2009) DVDrip

7 | 3

1.94 ГБ

В этой теме нет новых непрочитанных сообщений. Отдамся в хорошие руки (2009) HDTV 1080i от MediaClub

63 | 6

7.62 ГБ

В этой теме нет новых непрочитанных сообщений. Хорошие руки [11] (2014) SATRip

155 | 10

719.92 МБ

В этой теме нет новых непрочитанных сообщений. Хорошие руки [12] (2014) SATRip

98 | 10

703.01 МБ

В этой теме нет новых непрочитанных сообщений. Хорошие руки [01-12 из 12] (2014) HDTVRip-AVC

466 | 664

8.2 ГБ

В этой теме нет новых непрочитанных сообщений. Хорошие руки [01-12 из 12] (2014) HDTVRip от MediaClub

3035 | 1764

8.5 ГБ




Вы не можете начинать темы
Вы не можете отвечать на сообщения
Вы не можете редактировать свои сообщения
Вы не можете удалять свои сообщения
Вы не можете добавлять вложения

Перейти:  
Для Мосгорсуда, Роскомнадзора и рекламодателей: mosgorsud-torrent[собачка]yandex.ru
 Вход
ppkBB3cker v.2 © 2008-2014 @ PPK
[ Time : 0.251s | 17 Queries | GZIP : Off ]

Торрент трекер RUTOR.IN, Не можете зайти на rutor.org? Какой новый адрес рутор? Какое зеркало рутор? Не работает rutor.org и зеркала? Тогда наш торрент специально для вас. Rutor.in неофициальное зеркало rutor. В случае если у Вас заблокирован rutor или вдруг Вы не можете на него зайти, то Вы без труда сможете скачать бесплатно и без рекламы последние новинки кино, игр, сериалов и прочего у нас, на Rutor.in. Не нужно использовать прокси, чтобы зайти на рутор, достаточно воспользоваться нашим ресурсом. Все новые фильмы, игры, сериалы, книги и музыка за 2013 и 2014 годы через торрент бесплатно. Скачивайте фильмы в хорошем качестве, игры для пк, xbox, playstation без регистрации. У нас вы найдете новые Зарубежные сериалы и Русские сериалы 2013, 2014, 2015 годов. Оставайтесь с нами, качайте любимые фильмы, игры, сериалы, книги и музыку.