img image001 image001 image001 image001 image001 image001 image001 image001 image001 image001 image001 image001 image001 image001 image001

Planets Sun Sun Sun
Статистика раздачи
Автор: Снежана | Размер: 1.46 ГБ | Добавлен: 24 июл 2013
Раздают: 71    Качают: 7
Скачать торрент
Скачать торрент
Описание торрента

СообщениеДобавлено: 24 июл 2013 

#77

Информация о фильме
Название: Отдамся в хорошие руки
Год выхода: 2009
Жанр: комедия
Режиссер: Наталия Полякова
В ролях: Денис Никифоров, Рената Литвинова, Марат Башаров, Екатерина Кудринская, Виталий Хаев, Алексей Горбунов, Наталья Коляканова, Евгений Коряковский, Александр Лыков, Евгений Сахаров

О фильме:
Юная синеглазая красотка Маша живет с двумя братьями в странном доме на берегу Черного моря. Их мать отправилась на поиски лучшей жизни, а семейству Солнцевых приходится выживать самостоятельно. В поисках средств к существованию, Маша и ее братья попадают в водоворот разнообразных приключений. В череде событий мелькает богатый француз и погоня за ним с целью замужества, и семейка безбашенных соседей во главе с суровым папашей, и парочка влюбленных в Машу милиционеров, а так же байкеры, вооруженное ограбление, угон машины и незаконное пересечение границы. Все это — далеко не полный список приключений семьи Солнцевых на фоне крымских пейзажей. А в конце, как в сказке, героиня находит свою любовь.

Страна: Россия
Продолжительность: 01:42:24
Перевод: Не требуется

Файл
Кодек: XviD / AC3
Качество: DVDRip
Видео: XviD, 720x320 (2.25:1), 25.000 fps, 1 585 Kbps (0.275 bit/pixel)
Звук: AC3, 48.0 KHz, 6 ch, 448 Kbps, CBR (Russian)

General
Complete name : E:Otdamsya.v.khoroshie.ruki_DVDRip.1400_[Rutor.org].avi
Format : AVI
Format/Info : Audio Video Interleave
File size : 1.46 GiB
Duration : 1h 42mn
Overall bit rate : 2 040 Kbps
Writing application : VirtualDubMod 1.5.4.1 (build 2178/release)
Writing library : VirtualDubMod build 2178/release

Video
ID : 0
Format : MPEG-4 Visual
Format profile : Advanced Simple@L5
Format settings, BVOP : 1
Format settings, QPel : No
Format settings, GMC : No warppoints
Format settings, Matrix : Custom
Codec ID : XVID
Codec ID/Hint : XviD
Duration : 1h 42mn
Bit rate : 1 585 Kbps
Width : 720 pixels
Height : 320 pixels
Display aspect ratio : 2.25:1
Frame rate : 25.000 fps
Color space : YUV
Chroma subsampling : 4:2:0
Bit depth : 8 bits
Scan type : Progressive
Compression mode : Lossy
Bits/(Pixel*Frame) : 0.275
Stream size : 1.13 GiB (78%)
Writing library : XviD 64

Audio
ID : 1
Format : AC-3
Format/Info : Audio Coding 3
Mode extension : CM (complete main)
Codec ID : 2000
Duration : 1h 42mn
Bit rate mode : Constant
Bit rate : 448 Kbps
Channel(s) : 6 channels
Channel positions : Front: L C R, Side: L R, LFE
Sampling rate : 48.0 KHz
Bit depth : 16 bits
Compression mode : Lossy
Stream size : 328 MiB (22%)
Alignment : Split accross interleaves
Interleave, duration : 96 ms (2.40 video frames)
Interleave, preload duration : 96 ms
Language : Russian




   Похожие торренты   Торрент   Размер 
В этой теме нет новых непрочитанных сообщений. Отдамся в хорошие руки (2009) DVDRip

13 | 2

747.11 МБ

В этой теме нет новых непрочитанных сообщений. Догнать брюнетку / Отдамся в хорошие руки (2009) DVDrip

7 | 3

1.94 ГБ

В этой теме нет новых непрочитанных сообщений. Отдамся в хорошие руки (2009) HDTV 1080i от MediaClub

63 | 6

7.62 ГБ

В этой теме нет новых непрочитанных сообщений. Хорошие руки [12] (2014) SATRip

98 | 10

703.01 МБ

В этой теме нет новых непрочитанных сообщений. Хорошие руки [01-12 из 12] (2014) HDTVRip-AVC

466 | 664

8.2 ГБ

В этой теме нет новых непрочитанных сообщений. Хорошие руки [11] (2014) SATRip

155 | 10

719.92 МБ

В этой теме нет новых непрочитанных сообщений. Хорошие руки [01-12 из 12] (2014) HDTVRip от MediaClub

3035 | 1764

8.5 ГБ




Вы не можете начинать темы
Вы не можете отвечать на сообщения
Вы не можете редактировать свои сообщения
Вы не можете удалять свои сообщения
Вы не можете добавлять вложения

Перейти:  
Для Мосгорсуда, Роскомнадзора и рекламодателей: mosgorsud-torrent[собачка]yandex.ru
 Вход
ppkBB3cker v.2 © 2008-2014 @ PPK
[ Time : 0.041s | 15 Queries | GZIP : Off ]

cron