img image001 image001 image001 image001 image001 image001 image001 image001 image001 image001 image001 image001 image001 image001 image001

Planets Sun Sun Sun
Статистика раздачи
Автор: Снежана | Размер: 1.36 ГБ | Добавлен: 24 июл 2013
Раздают: 42    Качают: 4
Скачать торрент
Скачать торрент
Описание торрента

СообщениеДобавлено: 24 июл 2013 

Котёнок

Жанр: фильм о животных, мелодрама, семейный
Год выпуска: 1996
Продолжительность: 01:20:30

Режиссёр: Иван Попов

В ролях:
Андрей Кузнецов, Людмила Аринина, Алексей Войтюк, Татьяна Грауз, Мария Попова, Александр Попов, Александр Чургин, Александр Песков, Олег Вершинин, Андрей Звягинцев

Описание:
Сюжет в данной картине — лишь для условной привязки эпизодов к общей теме. А тема эта — доброта. В частности — любовь к животным. Так что, если вы не любите кошек — смотреть не стоит. А вот если любите, пусть хоть немного — получите удовольствие обязательно. Даже и просто от их количества и разнообразия. А еще они и все главные роли играют.



Качество видео: DVDRip, исходник -
Формат видео: AVI
Видео: 688x528 (1.30:1), 25 fps, XviD build 64 ~2217 kbps avg, 0.24 bit/pixel
Аудио: 48 kHz, AC3 Dolby Digital, 2/0 (L,R) ch, ~192 kbps


Общее
Полное имя : D:TorrentКотенок_1.36Котенок_1.36.avi
Формат : AVI
Формат/Информация : Audio Video Interleave
Размер файла : 1,36 Гбайт
Продолжительность : 1 ч. 20 м.
Общий поток : 2420 Кбит/сек
Программа кодирования : VirtualDubModRus 1.5.10.2 (build 2540/release)
Библиотека кодирования : VirtualDubMod build 2540/release
Видео
Идентификатор : 0
Формат : MPEG-4 Visual
Профиль формата : Advanced Simple@L5
Параметр BVOP формата : 1
Параметр QPel формата : Нет
Параметр GMC формата : Без точки перехода
Параметр матрицы формата : Выборочная
Идентификатор кодека : XVID
Идентификатор кодека/Подсказка : XviD
Продолжительность : 1 ч. 20 м.
Битрейт : 2218 Кбит/сек
Ширина : 688 пикселей
Высота : 528 пикселей
Соотношение сторон : 4:3
Частота кадров : 25,000 кадров/сек
Цветовое пространство : YUV
Субдискретизация насыщенности : 4:2:0
Битовая глубина : 8 бит
Тип развёртки : Прогрессивная
Метод сжатия : С потерями
Бит/(Пиксели*Кадры) : 0.244
Размер потока : 1,25 Гбайт (92%)
Библиотека кодирования : XviD 64
Аудио
Идентификатор : 1
Формат : AC-3
Формат/Информация : Audio Coding 3
Расширение режима : CM (complete main)
Идентификатор кодека : 2000
Продолжительность : 1 ч. 20 м.
Вид битрейта : Постоянный
Битрейт : 192 Кбит/сек
Каналы : 2 канала
Расположение каналов : Front: L R
Частота : 48,0 КГц
Битовая глубина : 16 бит
Метод сжатия : С потерями
Задержка видео : 16 мс.
Размер потока : 111 Мбайт (8%)
Выравнивание : Разделение по промежуткам
Продолжительность промежутка : 40 мс. (1,00 видеокадр)
Время предзагрузки промежутка : 500 мс.







   Похожие торренты   Торрент   Размер 
В этой теме нет новых непрочитанных сообщений. Котенок (1996) DVDRip

18 | 2

1.37 ГБ

В этой теме нет новых непрочитанных сообщений. Котенок (1996) Blu-Ray | JPN Transfer

11 | 16

21.28 ГБ

В этой теме нет новых непрочитанных сообщений. Котёнок (1996) DVD-5 | Лицензия

90 | 7

3.66 ГБ

В этой теме нет новых непрочитанных сообщений. Котёнок (1996) BDRip-AVC от ExKinoRay | JPN Transfer

42 | 6

1.73 ГБ

В этой теме нет новых непрочитанных сообщений. Котенок (1996) BDRip от MegaPeer | JPN Transfer

77 | 11

1.46 ГБ

В этой теме нет новых непрочитанных сообщений. Раз котенок, два котенок (2007) PC от Egorea1999

54 | 4

551.67 МБ

В этой теме нет новых непрочитанных сообщений. Котенок с улицы Лизюкова (1988) DVDRip

30 | 5

130 МБ




Вы не можете начинать темы
Вы не можете отвечать на сообщения
Вы не можете редактировать свои сообщения
Вы не можете удалять свои сообщения
Вы не можете добавлять вложения

Перейти:  
Для Мосгорсуда, Роскомнадзора и рекламодателей: mosgorsud-torrent[собачка]yandex.ru
 Вход
ppkBB3cker v.2 © 2008-2014 @ PPK
[ Time : 0.028s | 15 Queries | GZIP : Off ]

Торрент трекер RUTOR.IN, Не можете зайти на rutor.org? Какой новый адрес рутор? Какое зеркало рутор? Не работает rutor.org и зеркала? Тогда наш торрент специально для вас. Rutor.in неофициальное зеркало rutor. В случае если у Вас заблокирован rutor или вдруг Вы не можете на него зайти, то Вы без труда сможете скачать бесплатно и без рекламы последние новинки кино, игр, сериалов и прочего у нас, на Rutor.in. Не нужно использовать прокси, чтобы зайти на рутор, достаточно воспользоваться нашим ресурсом. Все новые фильмы, игры, сериалы, книги и музыка за 2013 и 2014 годы через торрент бесплатно. Скачивайте фильмы в хорошем качестве, игры для пк, xbox, playstation без регистрации. У нас вы найдете новые Зарубежные сериалы и Русские сериалы 2013, 2014, 2015 годов. Оставайтесь с нами, качайте любимые фильмы, игры, сериалы, книги и музыку.