img image001 image001 image001 image001 image001 image001 image001 image001 image001 image001 image001 image001 image001 image001 image001

Planets Sun Sun Sun
Статистика раздачи
Автор: Снежана | Размер: 880.06 МБ | Добавлен: 24 июл 2013
Раздают: 60    Качают: 15
Скачать торрент
Скачать торрент
Описание торрента

СообщениеДобавлено: 24 июл 2013 

#77

Давай поженимся

Страна: СССР
Жанр: Мелодрама
Год выпуска: 1982
Продолжительность: 01:18:14
Перевод: Не требуется
Субтитры: нет

Режиссёр: Александр Ефремов / Aleksandr Yefremov

В ролях: Юрий Назаров, Маргарита Терехова, Александра Климова, Виктор Манаев, Татьяна Мархель, Валерий Филатов, Валерий Филатов, Ирина Савина (Попова), Всеволод Платов, Андрей Душечкин, Сергей Журавель, Владимир Сичкарь, Георгий Волчек, Юрий Ступаков, Людмила Мацкевич, Жаннета Четверикова-Друцкая, Юрий Шульга, Юрий Баталов

Описание фильма: Случайно встретившись, они в шутку сказали друг другу «Давай поженимся». Поспешный союз мог и не состояться, если б не усилия Николая, который терпеливо и деликатно взял на себя инициативу обустройства совместной жизни.




Качество: TVRip
Формат: AVI
Видео: XviD; 704x528 (4:3); 1434 Kbps; 25 fps; 0,154 bpp
Аудио: MPEG-1 Audio layer 3; 128 Kbps; CBR; 2 ch [Russian]











Общее
Полное имя : D:1982_Давай_поженимся.avi
Формат : AVI
Формат/Информация : Audio Video Interleave
Размер файла : 880 Мбайт
Продолжительность : 1 ч. 18 м.
Общий поток : 1572 Кбит/сек
Программа кодирования : VirtualDubMod 1.5.10.2 (build 2540/release)
Библиотека кодирования : VirtualDubMod build 2540/release

Видео
Идентификатор : 0
Формат : MPEG-4 Visual
Профиль формата : Advanced Simple@L5
Параметр BVOP формата : 2
Параметр QPel формата : Нет
Параметр GMC формата : Без точки перехода
Параметр матрицы формата : Default (H.263)
Режим смешивания : Сжатый битовый поток
Идентификатор кодека : XVID
Идентификатор кодека/Подсказка : XviD
Продолжительность : 1 ч. 18 м.
Битрейт : 1435 Кбит/сек
Ширина : 704 пикселя
Высота : 528 пикселей
Соотношение сторон : 4:3
Частота кадров : 25,000 кадров/сек
Цветовое пространство : YUV
Субдискретизация насыщенности : 4:2:0
Битовая глубина : 8 бит
Тип развёртки : Прогрессивная
Метод сжатия : С потерями
Бит/(Пиксели*Кадры) : 0.154
Размер потока : 803 Мбайт (91%)
Библиотека кодирования : XviD 1.2.1 (UTC 2008-12-04)

Аудио
Идентификатор : 1
Формат : MPEG Audio
Версия формата : Version 1
Профиль формата : Layer 3
Идентификатор кодека : 55
Идентификатор кодека/Подсказка : MP3
Продолжительность : 1 ч. 18 м.
Вид битрейта : Постоянный
Битрейт : 128 Кбит/сек
Каналы : 2 канала
Частота : 48,0 КГц
Метод сжатия : С потерями
Размер потока : 71,6 Мбайт (8%)
Выравнивание : Соединение по промежуткам
Продолжительность промежутка : 40 мс. (1,00 видеокадр)
Время предзагрузки промежутка : 504 мс.
Библиотека кодирования : LAME3.98r
Настройки программы : -m s -V 4 -q 2 -lowpass 17 -b 128




   Похожие торренты   Торрент   Размер 
В этой теме нет новых непрочитанных сообщений. Давай поженимся в Украине / Давай одружимося в Україні (2013) SATRip

0 | 3

6.31 ГБ

В этой теме нет новых непрочитанных сообщений. Давай сделаем это легально / Давай поженимся / Let's Make It Legal (1951) DVDRip от egoleshik | P

37 | 13

1.18 ГБ

В этой теме нет новых непрочитанных сообщений. Давай поженимся [24.03] (2014) HDTVRip от MediaClub

21 | 2

674.4 МБ

В этой теме нет новых непрочитанных сообщений. Давай поженимся [эфир от 02.07] (2012) SATRip

0 | 4

571.56 МБ

В этой теме нет новых непрочитанных сообщений. Давай поженимся [эфир от 03.07] (2012) SATRip

0 | 2

572.14 МБ

В этой теме нет новых непрочитанных сообщений. Давай поженимся [эфир от 04.07] (2012) SATRip

0 | 3

571.55 МБ

В этой теме нет новых непрочитанных сообщений. Давай поженимся [эфир от 05.07] (2012) SATRip

0 | 6

572.62 МБ




Вы не можете начинать темы
Вы не можете отвечать на сообщения
Вы не можете редактировать свои сообщения
Вы не можете удалять свои сообщения
Вы не можете добавлять вложения

Перейти:  
Для Мосгорсуда, Роскомнадзора и рекламодателей: mosgorsud-torrent[собачка]yandex.ru
 Вход
ppkBB3cker v.2 © 2008-2014 @ PPK
[ Time : 0.038s | 18 Queries | GZIP : Off ]

Торрент трекер RUTOR.IN, Не можете зайти на rutor.org? Какой новый адрес рутор? Какое зеркало рутор? Не работает rutor.org и зеркала? Тогда наш торрент специально для вас. Rutor.in неофициальное зеркало rutor. В случае если у Вас заблокирован rutor или вдруг Вы не можете на него зайти, то Вы без труда сможете скачать бесплатно и без рекламы последние новинки кино, игр, сериалов и прочего у нас, на Rutor.in. Не нужно использовать прокси, чтобы зайти на рутор, достаточно воспользоваться нашим ресурсом. Все новые фильмы, игры, сериалы, книги и музыка за 2013 и 2014 годы через торрент бесплатно. Скачивайте фильмы в хорошем качестве, игры для пк, xbox, playstation без регистрации. У нас вы найдете новые Зарубежные сериалы и Русские сериалы 2013, 2014, 2015 годов. Оставайтесь с нами, качайте любимые фильмы, игры, сериалы, книги и музыку.
cron