img image001 image001 image001 image001 image001 image001 image001 image001 image001 image001 image001 image001 image001 image001 image001

Planets Sun Sun Sun
Статистика раздачи
Автор: Снежана | Размер: 4.2 ГБ | Добавлен: 24 июл 2013
Раздают: 4    Качают: 2
Скачать торрент
Скачать торрент
Описание торрента

СообщениеДобавлено: 24 июл 2013 

#77

Информация о фильме
Название: Август. Восьмого
Оригинальное название: Август. Восьмого
Год выхода: 2012
Жанр: драма, военный
Режиссер: Джаник Файзиев
В ролях: Светлана Иванова, Максим Матвеев, Егор Бероев, Артем Фадеев, Владимир Вдовиченков, Сергей Газаров, Гоша Куценко, Анатолий Белый, Кирилл Плетнёв, Алексей Гуськов

О фильме: Когда события нанизываются одно на другое, когда каждая минута ставит тебя перед выбором, когда жизнь и смерть становятся частью страшной компьютерной игры, пульт от которой — в чужих руках, тогда ты начинаешь действовать так, будто каждая минута — последняя.
Казалось бы, жизнь хорошенькой разведенной москвички Ксении оставляет не много места для драматических ситуаций: да, сын Тема тяжело переживает развод родителей, да, поклонник поглощен карьерой, да, мама вмешивается в личную жизнь, — но трудно назвать эти обстоятельства критическими.



Выпущено: Россия
Продолжительность: 02:08:03
Озвучивание: Оригинальное [Лицензия]

Файл
Формат: DVD-Video
Качество: DVD5 | Лицензия
Видео: Mpeg 2, PAL 16:9 (720x576), 9 000 Kbps, 25 000 fps
Аудио: Russian (Dolby AC3, 6 ch), 448Kbps, 48000 Hz [лицензия]
Размер: 4.2 GB
Скачать: Сэмпл

Title: AVGUST_VOSMOGO_2012_DVD_5
Size: 4.36 Gb ( 4 571 130,00 KBytes ) - DVD-5
Enabled regions: 1, 2, 3, 4, 5, 6

VTS_01 :
Play Length: 02:06:46
Video: PAL 16:9 (720x576) VBR, Auto Letterboxed
Audio:
Russian (Dolby AC3, 6 ch)
Общее
Полное имя : D:tempAVGUST_VOSMOGO_2012_DVD_5VTS_01_3.VOB
Формат : MPEG-PS
Размер файла : 1024 Мбайт
Продолжительность : 27 м.
Режим общего битрейта : Переменный
Общий поток : 5127 Кбит/сек

Видео
Идентификатор : 224 (0xE0)
Формат : MPEG Video
Версия формата : Version 2
Профиль формата : Main@Main
Параметр BVOP формата : Да
Параметр матрицы формата : Выборочная
Параметр GOP формата : M=3, N=15
Продолжительность : 27 м.
Вид битрейта : Переменный
Битрейт : 4577 Кбит/сек
Максимальный битрейт : 9000 Кбит/сек
Ширина : 720 пикселей
Высота : 576 пикселей
Соотношение сторон : 16:9
Частота кадров : 25,000 кадров/сек
Стандарт вещания : PAL
Цветовое пространство : YUV
Субдискретизация насыщенности : 4:2:0
Битовая глубина : 8 бит
Тип развёртки : Прогрессивная
Метод сжатия : С потерями
Бит/(Пиксели*Кадры) : 0.441
Размер потока : 914 Мбайт (89%)

Аудио
Идентификатор : 189 (0xBD)-128 (0x80)
Формат : AC-3
Формат/Информация : Audio Coding 3
Расширение режима : CM (complete main)
Режим смешивания : DVD-Video
Продолжительность : 27 м.
Вид битрейта : Постоянный
Битрейт : 448 Кбит/сек
Каналы : 6 каналов
Расположение каналов : Front: L C R, Side: L R, LFE
Частота : 48,0 КГц
Битовая глубина : 16 бит
Метод сжатия : С потерями
Задержка видео : -496 мс.
Размер потока : 89,5 Мбайт (9%)

Меню


Скриншоты





   Похожие торренты   Торрент   Размер 
В этой теме нет новых непрочитанных сообщений. Август. Восьмого (2012) BDRip-AVC от R.G. AVI | AVC | Лицензия

1 | 21

2.17 ГБ

В этой теме нет новых непрочитанных сообщений. Август. Восьмого (2012) BDRip-AVC | Лицензия

3 | 2

3.1 ГБ

В этой теме нет новых непрочитанных сообщений. Август. Восьмого (2012) HDRip | Лицензия

7 | 6

702.31 МБ

В этой теме нет новых непрочитанных сообщений. Август. Восьмого (2012) DVD9 | Лицензия

5 | 2

7.36 ГБ

В этой теме нет новых непрочитанных сообщений. Август. Восьмого (2012) BDRip | Лицензия

10 | 3

1.38 ГБ

В этой теме нет новых непрочитанных сообщений. Август. Восьмого (2012) HDRip | Лицензия | КПК от KinoMob

11 | 6

996.8 МБ

В этой теме нет новых непрочитанных сообщений. Август. Восьмого (2012) HDRip от Scarabey | Лицензия

20 | 6

795.63 МБ




Вы не можете начинать темы
Вы не можете отвечать на сообщения
Вы не можете редактировать свои сообщения
Вы не можете удалять свои сообщения
Вы не можете добавлять вложения

Перейти:  
Для Мосгорсуда, Роскомнадзора и рекламодателей: mosgorsud-torrent[собачка]yandex.ru
 Вход
ppkBB3cker v.2 © 2008-2014 @ PPK
[ Time : 0.044s | 14 Queries | GZIP : Off ]

Торрент трекер RUTOR.IN, Не можете зайти на rutor.org? Какой новый адрес рутор? Какое зеркало рутор? Не работает rutor.org и зеркала? Тогда наш торрент специально для вас. Rutor.in неофициальное зеркало rutor. В случае если у Вас заблокирован rutor или вдруг Вы не можете на него зайти, то Вы без труда сможете скачать бесплатно и без рекламы последние новинки кино, игр, сериалов и прочего у нас, на Rutor.in. Не нужно использовать прокси, чтобы зайти на рутор, достаточно воспользоваться нашим ресурсом. Все новые фильмы, игры, сериалы, книги и музыка за 2013 и 2014 годы через торрент бесплатно. Скачивайте фильмы в хорошем качестве, игры для пк, xbox, playstation без регистрации. У нас вы найдете новые Зарубежные сериалы и Русские сериалы 2013, 2014, 2015 годов. Оставайтесь с нами, качайте любимые фильмы, игры, сериалы, книги и музыку.