img image001 image001 image001 image001 image001 image001 image001 image001 image001 image001 image001 image001 image001 image001 image001

Planets Sun Sun Sun
Статистика раздачи
Автор: Снежана | Размер: 2.18 ГБ | Добавлен: 24 июл 2013
Раздают: 345    Качают: 39
Скачать торрент
Скачать торрент
Описание торрента

СообщениеДобавлено: 24 июл 2013 

#77

Информация о фильме
Название: Сталкер
Год выхода: 1979
Жанр: Фантастика, драма
Режиссер: Андрей Тарковский
В ролях: Александр Кайдановский, Анатолий Солоницын, Николай Гринько, Алиса Фрейндлих, Файме Юрна, Наташа Абрамова

О фильме:
Место, где произошло то ли падение метеорита, то ли визит инопланетян - запретно, там творятся странные вещи, это место опасно, и по слухам там существует комната, где исполняются самые заветные желания. К этой комнате отправляются модный Писатель и авторитетный Профессор - каждый по своим причинам, о которых предпочитает не говорить. А ведет их туда Сталкер - проводник по Зоне - то ли юродивый, то ли апостол новой веры.

Страна: СССР
Продолжительность: 02:34:56
Перевод: Оригинал

Файл
Кодек: x.264
Качество: DVDRip-AVC
Видео: 1562 kb/s, 720x528, 25 fps
Звук: AC3, 448 kb/s (6Ch)
Субтитры: Русские

Общее
Полное имя : Сталкер (1979).mkv
Формат : Matroska
Версия формата : Version 2
Размер файла : 2,18 Гбайт
Продолжительность : 2 ч. 34 м.
Режим общего битрейта : Переменный
Общий поток : 2017 Кбит/сек
Название фильма : Сталкер (1979) DVDRip-AVC от Neofilm
Дата кодирования : UTC 2012-03-18 06:44:06
Программа кодирования : mkvmerge v5.3.0 ('I could have danced') built on Feb 9 2012 10:38:07
Библиотека кодирования : libebml v1.2.3 + libmatroska v1.3.0

Видео
Идентификатор : 1
Формат : AVC
Формат/Информация : Advanced Video Codec
Профиль формата : Main@L3.1
Параметр CABAC формата : Да
Параметр ReFrames формата : 5 кадров
Идентификатор кодека : V_MPEG4/ISO/AVC
Продолжительность : 2 ч. 34 м.
Вид битрейта : Переменный
Битрейт : 1562 Кбит/сек
Максимальный битрейт : 40,0 Мбит/сек
Ширина : 720 пикселей
Высота : 528 пикселей
Соотношение сторон : 4:3
Частота кадров : 25,000 кадров/сек
Цветовое пространство : YUV
Субдискретизация насыщенности : 4:2:0
Битовая глубина : 8 бит
Тип развёртки : Прогрессивная
Бит/(Пиксели*Кадры) : 0.164
Размер потока : 1,65 Гбайт (76%)
Заголовок : Сталкер (1979)
Библиотека кодирования : x264 core 120 r2164 da19765
Настройки программы : cabac=1 / ref=5 / deblock=1:-3:-3 / analyse=0x1:0x111 / me=umh / subme=10 / psy=1 / psy_rd=1.00:0.00 / mixed_ref=1 / me_range=32 / chroma_me=1 / trellis=2 / 8x8dct=0 / cqm=0 / deadzone=21,11 / fast_pskip=0 / chroma_qp_offset=-2 / threads=12 / sliced_threads=0 / nr=0 / decimate=0 / interlaced=0 / bluray_compat=0 / constrained_intra=0 / bframes=3 / b_pyramid=2 / b_adapt=2 / b_bias=0 / direct=3 / weightb=1 / open_gop=0 / weightp=2 / keyint=250 / keyint_min=25 / scenecut=40 / intra_refresh=0 / rc_lookahead=40 / rc=2pass / mbtree=0 / bitrate=1562 / ratetol=1.0 / qcomp=0.60 / qpmin=0 / qpmax=69 / qpstep=4 / cplxblur=20.0 / qblur=0.5 / vbv_maxrate=50000 / vbv_bufsize=62500 / nal_hrd=none / ip_ratio=1.40 / pb_ratio=1.30 / aq=1:0.
Язык : Russian
Default : Да
Forced : Нет

Аудио
Идентификатор : 2
Формат : AC-3
Формат/Информация : Audio Coding 3
Расширение режима : CM (complete main)
Идентификатор кодека : A_AC3
Продолжительность : 2 ч. 34 м.
Вид битрейта : Постоянный
Битрейт : 448 Кбит/сек
Каналы : 6 каналов
Расположение каналов : Front: L C R, Side: L R, LFE
Частота : 48,0 КГц
Битовая глубина : 16 бит
Метод сжатия : С потерями
Задержка видео : 594 мс.
Размер потока : 496 Мбайт (22%)
Заголовок : 3/2+1
Язык : Russian
Default : Да
Forced : Нет

Текст
Идентификатор : 3
Формат : VobSub
Идентификатор кодека : S_VOBSUB
Идентификатор кодека/Информация : The same subtitle format used on DVDs
Язык : Russian
Default : Да
Forced : Нет

Меню
00:00:00.000 : en:Chapter 01
00:03:52.400 : en:Chapter 02
00:12:26.480 : en:Chapter 03
00:15:28.400 : en:Chapter 04
00:20:44.240 : en:Chapter 05
00:27:51.920 : en:Chapter 06
00:31:50.960 : en:Chapter 07
00:36:56.240 : en:Chapter 08
00:47:13.040 : en:Chapter 09
00:50:16.880 : en:Chapter 10
00:53:24.080 : en:Chapter 11
00:57:19.280 : en:Chapter 12
01:02:43.760 : en:Chapter 13
01:06:44.720 : en:Chapter 14
01:10:46.160 : en:Chapter 15
01:15:17.360 : en:Chapter 16
01:27:55.280 : en:Chapter 17
01:31:29.360 : en:Chapter 18
01:40:19.280 : en:Chapter 19
01:49:54.320 : en:Chapter 20
01:52:02.960 : en:Chapter 21
01:55:30.320 : en:Chapter 22
02:02:32.240 : en:Chapter 23
02:05:14.960 : en:Chapter 24
02:09:13.520 : en:Chapter 25
02:23:03.920 : en:Chapter 26
02:27:54.800 : en:Chapter 27
02:30:44.240 : en:Chapter 28




Релиз от:



   Похожие торренты   Торрент   Размер 
В этой теме нет новых непрочитанных сообщений. Сталкер (1979) DVDRip

263 | 20

699.58 МБ

В этой теме нет новых непрочитанных сообщений. Сталкер (1979) DVDRip

915 | 80

2.21 ГБ

В этой теме нет новых непрочитанных сообщений. Сталкер (1979) DVDRip от MediaClub | КПК

49 | 27

697.13 МБ

В этой теме нет новых непрочитанных сообщений. Сталкер (1979) Blu-Ray | JPN Transfer

43 | 23

44.26 ГБ

В этой теме нет новых непрочитанных сообщений. Сталкер (1979) BDRip от HQCLUB

321 | 17

2.18 ГБ

В этой теме нет новых непрочитанных сообщений. Сталкер (1979) BDRip от HQ-ViDEO

331 | 27

2.18 ГБ

В этой теме нет новых непрочитанных сообщений. Сталкер (1979) BDRip 720p

382 | 31

4.37 ГБ




Вы не можете начинать темы
Вы не можете отвечать на сообщения
Вы не можете редактировать свои сообщения
Вы не можете удалять свои сообщения
Вы не можете добавлять вложения

Перейти:  
Для Мосгорсуда, Роскомнадзора и рекламодателей: mosgorsud-torrent[собачка]yandex.ru
 Вход
ppkBB3cker v.2 © 2008-2014 @ PPK
[ Time : 0.571s | 14 Queries | GZIP : On ]

Торрент трекер RUTOR.IN, Не можете зайти на rutor.org? Какой новый адрес рутор? Какое зеркало рутор? Не работает rutor.org и зеркала? Тогда наш торрент специально для вас. Rutor.in неофициальное зеркало rutor. В случае если у Вас заблокирован rutor или вдруг Вы не можете на него зайти, то Вы без труда сможете скачать бесплатно и без рекламы последние новинки кино, игр, сериалов и прочего у нас, на Rutor.in. Не нужно использовать прокси, чтобы зайти на рутор, достаточно воспользоваться нашим ресурсом. Все новые фильмы, игры, сериалы, книги и музыка за 2013 и 2014 годы через торрент бесплатно. Скачивайте фильмы в хорошем качестве, игры для пк, xbox, playstation без регистрации. У нас вы найдете новые Зарубежные сериалы и Русские сериалы 2013, 2014, 2015 годов. Оставайтесь с нами, качайте любимые фильмы, игры, сериалы, книги и музыку.