img image001 image001 image001 image001 image001 image001 image001 image001 image001 image001 image001 image001 image001 image001 image001

Planets Sun Sun Sun
Статистика раздачи
Автор: Снежана | Размер: 4.17 ГБ | Добавлен: 24 июл 2013
Раздают: 10    Качают: 2
Скачать торрент
Скачать торрент
Описание торрента

СообщениеДобавлено: 24 июл 2013 

#77

Информация о фильме
Название: Мамы
Год выхода: 2012
Жанр: Комедия, мелодрама
Режиссер: Евгений Абызов, Сарик Андреасян, Алан Бадоев
В ролях: Елена Корикова, Ольга Волкова, Юлия Гришина, Татьяна Космачева, Екатерина Васильева, Александра Назарова, Марина Голуб, Екатерина Артеменко, Лия Ахеджакова, Светлана Ходченкова, Ольга Макеева, Равшана Куркова, Ксения Буравская, Мария Семкина, Мария Шалаева, Нина Русланова, Анастасия Заворотнюк, Ольга Тумайкина, Сергей Безруков, Дмитрий Дюжев, Михаил Пореченков, Егор Бероев, Гоша Куценко, Петр Федоров, Федор Добронравов, Иван Добронравов, Игорь Верник, Александр Олешко

О фильме:
Каждый год в день 8-го марта телефонные сети России передают миллионы звонков и смс-сообщений. Трудолюбивые аналитики подсчитали, что абсолютное большинство телефонных звонков адресовано самым главным женщинам в жизни каждого человека — мамам. Мы выросли, и заготовленные заранее аппликации и букеты цветов, купленные до маминого пробуждения, — давно забытые детские привычки. Отныне мы поздравляем мам по-взрослому: дожидаемся, когда они проснутся, и набираем телефонный номер. Но что, если случится коллапс, и из-за пиковой перегруженности телефонная сеть рухнет? Итак, связи нет. Что делать? Кто-то будет ждать, пока её восстановят — поздравит вечером или даже на следующий день. А другие, как и герои нашего киноальманаха, поменяют свои планы, чтобы поздравить своих мам именно сегодня… лично… как в детстве! Восемь разных поздравлений и жизненных ситуаций. Восемь разных МАМ.

Страна: Россия
Студия: Enjoy Movies
Продолжительность: 01:41:14
Перевод: оригинал

Файл
Кодек: x264
Качество: BDRip 720p
Видео: MPEG-4 AVC, 4267 Кбит/с, 1280x544
Звук: DTS, 6 ch, 1510 Кбит/с

Семпл


Mamy.2012.720p.Blu-ray.DTS.x264-HDT.mkv
Format : Matroska
Format version : Version 2
File size : 4.17 GiB
Duration : 1h 41mn
Overall bit rate : 5 894 Kbps
Movie name : by HDT
Encoded date : UTC 2012-03-30 20:08:20
Writing application : mkvmerge v5.0.1 ('Es ist Sommer') built on Oct 9 2011 11:55:43
Writing library : libebml v1.2.2 + libmatroska v1.3.0

Video
ID : 1
Format : AVC
Format/Info : Advanced Video Codec
Format profile : High@L4.1
Format settings, CABAC : Yes
Format settings, ReFrames : 12 frames
Codec ID : V_MPEG4/ISO/AVC
Duration : 1h 41mn
Bit rate : 4 267 Kbps
Width : 1 280 pixels
Height : 544 pixels
Display aspect ratio : 2.35:1
Frame rate : 25.000 fps
Color space : YUV
Chroma subsampling : 4:2:0
Bit depth : 8 bits
Scan type : Progressive
Bits/(Pixel*Frame) : 0.245
Stream size : 3.02 GiB (72%)
Title : by HDT
Writing library : x264 core 116 r2074 2641b9e
Encoding settings : cabac=1 / ref=12 / deblock=1:-3:-3 / analyse=0x3:0x113 / me=umh / subme=10 / psy=1 / psy_rd=1.20:0.00 / mixed_ref=1 / me_range=32 / chroma_me=1 / trellis=2 / 8x8dct=1 / cqm=0 / deadzone=21,11 / fast_pskip=0 / chroma_qp_offset=-2 / threads=12 / sliced_threads=0 / nr=0 / decimate=1 / interlaced=0 / bluray_compat=0 / constrained_intra=0 / bframes=7 / b_pyramid=2 / b_adapt=2 / b_bias=0 / direct=1 / weightb=1 / open_gop=0 / weightp=2 / keyint=250 / keyint_min=23 / scenecut=40 / intra_refresh=0 / rc_lookahead=40 / rc=crf / mbtree=0 / crf=17.0 / qcomp=0.60 / qpmin=10 / qpmax=69 / qpstep=4 / vbv_maxrate=50000 / vbv_bufsize=62500 / crf_max=0.0 / nal_hrd=none / ip_ratio=1.40 / pb_ratio=1.30 / aq=1:1.00
Language : Russian
Default : Yes
Forced : Yes

Audio
ID : 2
Format : DTS
Format/Info : Digital Theater Systems
Codec ID : A_DTS
Duration : 1h 41mn
Bit rate mode : Constant
Bit rate : 1 510 Kbps
Channel(s) : 6 channels
Channel positions : Front: L C R, Side: L R, LFE
Sampling rate : 48.0 KHz
Bit depth : 24 bits
Compression mode : Lossy
Stream size : 1.07 GiB (26%)
Title : by HDT
Language : Russian
Default : Yes
Forced : Yes

Menu
00:00:00.000 : :00:00:00.000
00:08:29.280 : :00:08:29.280
00:13:52.320 : :00:13:52.320
00:19:50.080 : :00:19:50.080
00:27:04.680 : :00:27:04.680
00:33:13.000 : :00:33:13.000
00:41:07.200 : :00:41:07.200
00:47:54.160 : :00:47:54.160
00:53:19.000 : :00:53:19.000
00:59:44.800 : :00:59:44.800
01:04:34.840 : :01:04:34.840
01:11:15.600 : :01:11:15.600
01:17:39.320 : :01:17:39.320
01:25:44.640 : :01:25:44.640
01:30:02.120 : :01:30:02.120
01:34:37.880 : :01:34:37.880



   Похожие торренты   Торрент   Размер 
В этой теме нет новых непрочитанных сообщений. Мамы (2012) BDRip 720p от HQ-ViDEO

552 | 23

3 ГБ

В этой теме нет новых непрочитанных сообщений. С новым годом, мамы! (2012) BDRip 720p от HDCLUB

10 | 9

3.25 ГБ

В этой теме нет новых непрочитанных сообщений. Мамы (2012) BDRip-AVC от PowerTracker

6 | 3

1.45 ГБ

В этой теме нет новых непрочитанных сообщений. Мамы (2012) BDRip 1080p

286 | 37

4.37 ГБ

В этой теме нет новых непрочитанных сообщений. Мамы (2012) BDRip от HELLYWOOD

28 | 6

1.45 ГБ

В этой теме нет новых непрочитанных сообщений. Мамы (2012) BDRip-AVC | iPad

20 | 4

1.67 ГБ

В этой теме нет новых непрочитанных сообщений. Мамы (2012) BDRip от HQ-ViDEO

80 | 5

1.46 ГБ




Вы не можете начинать темы
Вы не можете отвечать на сообщения
Вы не можете редактировать свои сообщения
Вы не можете удалять свои сообщения
Вы не можете добавлять вложения

Перейти:  
Для Мосгорсуда, Роскомнадзора и рекламодателей: mosgorsud-torrent[собачка]yandex.ru
 Вход
ppkBB3cker v.2 © 2008-2014 @ PPK
[ Time : 0.041s | 15 Queries | GZIP : Off ]

Торрент трекер RUTOR.IN, Не можете зайти на rutor.org? Какой новый адрес рутор? Какое зеркало рутор? Не работает rutor.org и зеркала? Тогда наш торрент специально для вас. Rutor.in неофициальное зеркало rutor. В случае если у Вас заблокирован rutor или вдруг Вы не можете на него зайти, то Вы без труда сможете скачать бесплатно и без рекламы последние новинки кино, игр, сериалов и прочего у нас, на Rutor.in. Не нужно использовать прокси, чтобы зайти на рутор, достаточно воспользоваться нашим ресурсом. Все новые фильмы, игры, сериалы, книги и музыка за 2013 и 2014 годы через торрент бесплатно. Скачивайте фильмы в хорошем качестве, игры для пк, xbox, playstation без регистрации. У нас вы найдете новые Зарубежные сериалы и Русские сериалы 2013, 2014, 2015 годов. Оставайтесь с нами, качайте любимые фильмы, игры, сериалы, книги и музыку.
cron