img image001 image001 image001 image001 image001 image001 image001 image001 image001 image001 image001 image001 image001 image001 image001

Planets Sun Sun Sun
Статистика раздачи
Автор: Снежана | Размер: 4.37 ГБ | Добавлен: 24 июл 2013
Раздают: 149    Качают: 5
Скачать торрент
Скачать торрент
Описание торрента

СообщениеДобавлено: 24 июл 2013 

#77

Информация о фильме
Название: Шапито-шоу: Уважение и сотрудничество
Год выхода: 2011
Жанр: комедия
Режиссер: Сергей Лобан
В ролях: Вера Строкова, Алексей Подольский, Алексей Знаменский, Петр Мамонов

О фильме: Новелла Уважение. Смертельный номер! Великий мудрец, заплутавший во тьме, и его ученик, отчаянно стремящийся к свету. Они балансируют на краю пропасти, и пламя вулкана обжигает их лица. Король Лир и Звездный мальчик, их поезд судьбы стрелой несется сквозь горный тоннель. Ждет ли их свет в конце? Об этом в представлении!

Новелла Сотрудничество. Впервые в мире! Небывалое изобретение в области шоу-бизнеса! «Эрзац-звезда»! Существо, способное уничтожить любых конкурентов, и его создатель взлетят на самую вершину Олимпа, чтобы рухнуть оттуда в пучину вод. Инженер Гарин и Человек-Слон спасут или уничтожат друг друга! Это и еще многое -многое другое…!



Выпущено: Organic Films
Продолжительность: 01:50:51
Перевод: Оригинал

Файл
Кодек: x264
Качество: BDRip (источник: Blu-ray Disc)
Видео: 1920x1008 (1,905), 25 fps, 5005 kbps
Звук: 48 kHz, AC-3, 6 ch, 640 kbps
Скачать: сэмпл

Скриншоты

Общее
Уникальный идентификатор : 249334762552577014981978116815405794491 (0xBB9420E7D83C5C869C45A71CF30D44BB)
Полное имя : Shapito-shou.Part.2.2011.BDRip.1080p.Rus.mkv
Формат : Matroska
Версия формата : Version 2
Размер файла : 4,37 Гбайт
Продолжительность : 1 ч. 50 м.
Общий поток : 5646 Кбит/сек
Название фильма : Шапито-шоу: Уважение и сотрудничество (2011)
Дата кодирования : UTC 2012-03-31 08:39:42
Программа кодирования : mkvmerge v4.0.0 ('The Stars were mine') сборка от Jun 6 2010 16:18:42
Библиотека кодирования : libebml v1.0.0 + libmatroska v1.0.0

Видео
Идентификатор : 1
Формат : AVC
Формат/Информация : Advanced Video Codec
Профиль формата : High@L4.1
Параметр CABAC формата : Да
Параметр ReFrames формата : 4 кадра
Идентификатор кодека : V_MPEG4/ISO/AVC
Продолжительность : 1 ч. 50 м.
Битрейт : 5005 Кбит/сек
Ширина : 1920 пикселей
Высота : 1008 пикселей
Соотношение сторон : 1,905
Частота кадров : 25,000 кадров/сек
Цветовое пространство : YUV
Субдискретизация насыщенности : 4:2:0
Битовая глубина : 8 бит
Тип развёртки : Прогрессивная
Бит/(Пиксели*Кадры) : 0.103
Размер потока : 3,79 Гбайт (87%)
Заголовок : Release by AlexKa
Библиотека кодирования : x264 core 122 r2184 5c85e0a
Настройки программы : cabac=1 / ref=4 / deblock=1:0:0 / analyse=0x3:0x133 / me=umh / subme=10 / psy=1 / psy_rd=1.00:0.10 / mixed_ref=1 / me_range=32 / chroma_me=1 / trellis=2 / 8x8dct=1 / cqm=0 / deadzone=21,11 / fast_pskip=0 / chroma_qp_offset=-3 / threads=12 / sliced_threads=0 / nr=0 / decimate=0 / interlaced=0 / bluray_compat=0 / constrained_intra=0 / bframes=5 / b_pyramid=2 / b_adapt=2 / b_bias=0 / direct=3 / weightb=1 / open_gop=0 / weightp=2 / keyint=250 / keyint_min=25 / scenecut=40 / intra_refresh=0 / rc_lookahead=60 / rc=2pass / mbtree=1 / bitrate=5005 / ratetol=1.0 / qcomp=0.60 / qpmin=0 / qpmax=69 / qpstep=4 / cplxblur=20.0 / qblur=0.5 / ip_ratio=1.40 / aq=1:1.00
Язык : Russian

Аудио
Идентификатор : 2
Формат : AC-3
Формат/Информация : Audio Coding 3
Расширение режима : CM (complete main)
Идентификатор кодека : A_AC3
Продолжительность : 1 ч. 50 м.
Вид битрейта : Постоянный
Битрейт : 640 Кбит/сек
Каналы : 6 каналов
Расположение каналов : Front: L C R, Side: L R, LFE
Частота : 48,0 КГц
Битовая глубина : 16 бит
Метод сжатия : С потерями
Размер потока : 507 Мбайт (11%)
Язык : Russian

Меню
00:00:00.000 : :Chapter 01
00:02:22.279 : :Chapter 02
00:27:03.280 : :Chapter 03
01:00:47.920 : :Chapter 04
01:24:56.080 : :Chapter 05



   Похожие торренты   Торрент   Размер 
В этой теме нет новых непрочитанных сообщений. Шапито-шоу: Уважение и сотрудничество: Часть 2 (2011) DVDRip | Лицензия

86 | 25

1.37 ГБ

В этой теме нет новых непрочитанных сообщений. Шапито-шоу: Любовь и дружба / Уважение и сотрудничество [01-02 части из 02] (2011) Blu-ray

4 | 3

37.7 ГБ

В этой теме нет новых непрочитанных сообщений. Шапито-шоу: Любовь и дружба / Уважение и сотрудничество [01-02 части из 02] (2011) DVD9

0 | 2

7.59 ГБ

В этой теме нет новых непрочитанных сообщений. Шапито-шоу: Любовь и дружба / Уважение и сотрудничество [01-02 части из 02] (2011) HDRip

134 | 13

2.92 ГБ

В этой теме нет новых непрочитанных сообщений. Шапито-шоу: Любовь и дружба / Уважение и сотрудничество. Часть 01-02 (2011) DVDRip от Youtracker

76 | 4

1.46 ГБ

В этой теме нет новых непрочитанных сообщений. Шапито-шоу: Любовь и дружба (2011) BDRip 1080p

111 | 8

4.37 ГБ

В этой теме нет новых непрочитанных сообщений. OST - Шапито-шоу from AGR (Unofficial) (2011) MP3

4 | 2

73.19 МБ




Вы не можете начинать темы
Вы не можете отвечать на сообщения
Вы не можете редактировать свои сообщения
Вы не можете удалять свои сообщения
Вы не можете добавлять вложения

Перейти:  
Для Мосгорсуда, Роскомнадзора и рекламодателей: mosgorsud-torrent[собачка]yandex.ru
 Вход
ppkBB3cker v.2 © 2008-2014 @ PPK
[ Time : 0.036s | 14 Queries | GZIP : Off ]

Торрент трекер RUTOR.IN, Не можете зайти на rutor.org? Какой новый адрес рутор? Какое зеркало рутор? Не работает rutor.org и зеркала? Тогда наш торрент специально для вас. Rutor.in неофициальное зеркало rutor. В случае если у Вас заблокирован rutor или вдруг Вы не можете на него зайти, то Вы без труда сможете скачать бесплатно и без рекламы последние новинки кино, игр, сериалов и прочего у нас, на Rutor.in. Не нужно использовать прокси, чтобы зайти на рутор, достаточно воспользоваться нашим ресурсом. Все новые фильмы, игры, сериалы, книги и музыка за 2013 и 2014 годы через торрент бесплатно. Скачивайте фильмы в хорошем качестве, игры для пк, xbox, playstation без регистрации. У нас вы найдете новые Зарубежные сериалы и Русские сериалы 2013, 2014, 2015 годов. Оставайтесь с нами, качайте любимые фильмы, игры, сериалы, книги и музыку.