img image001 image001 image001 image001 image001 image001 image001 image001 image001 image001 image001 image001 image001 image001 image001

Planets Sun Sun Sun
Статистика раздачи
Автор: Снежана | Размер: 1.45 ГБ | Добавлен: 24 июл 2013
Раздают: 6    Качают: 3
Скачать торрент
Скачать торрент
Описание торрента

СообщениеДобавлено: 24 июл 2013 

#77

Жанр: мелодрама, комедия
Страна: Россия
Режиссер: Евгений Абызов, Сарик Андреасян, Алан Бадоев
В ролях: Сергей Безруков, Дмитрий Дюжев, Михаил Пореченков, Егор Бероев, Гоша Куценко, Петр Федоров, Федор Добронравов, Иван Добронравов, Игорь Верник, Александр Олешко

Сюжет фильма: Каждый год в день 8-го марта телефонные сети России передают миллионы звонков и смс-сообщений. Трудолюбивые аналитики подсчитали, что абсолютное большинство телефонных звонков адресовано самым главным женщинам в жизни каждого человека — мамам.
Мы выросли, и заготовленные заранее аппликации и букеты цветов, купленные до маминого пробуждения, — давно забытые детские привычки. Отныне мы поздравляем мам по-взрослому: дожидаемся, когда они проснутся, и набираем телефонный номер.
Но что, если случится коллапс, и из-за пиковой перегруженности телефонная сеть рухнет? Итак, связи нет. Что делать? Кто-то будет ждать, пока её восстановят — поздравит вечером или даже на следующий день. А другие, как и герои нашего киноальманаха, поменяют свои планы, чтобы поздравить своих мам именно сегодня… лично… как в детстве!
Восемь разных поздравлений и жизненных ситуаций. Восемь разных МАМ.

Мировая премьера: 1 марта 2012
Российская премьера: 1 марта 2012



Продолжительность: 01:41:19
Качество видео: BDRip-AVC [BDRip / 1080p]
Видео: кодек: x264, размер кадра: 1024x436, битрейт: 1665 кб/с, bit/pixel: 0.149
Аудио: язык: Русский , перевод: оригинал, кодек: AC3 5.1, битрейт: 384 кб/с

Релиз группы: Автор рипа:

Общее
Уникальный идентификатор : 178268232410723035847612850323561174955 (0x861D3673111761D9B9822F1ED314D7AB)
Формат : Matroska
Версия формата : Version 2
Размер файла : 1,45 Гбайт
Продолжительность : 1 ч. 41 м.
Общий поток : 2048 Кбит/сек
Название фильма : Мамы (2012) BDRip-AVC rip by tise
Дата кодирования : UTC 2012-04-01 09:08:08
Программа кодирования : mkvmerge v5.4.0 ('Piper') built on Mar 10 2012 13:34:39
Библиотека кодирования : libebml v1.2.3 + libmatroska v1.3.0

Видео
Идентификатор : 1
Формат : AVC
Формат/Информация : Advanced Video Codec
Профиль формата : High@L4.1
Параметр CABAC формата : Да
Параметр ReFrames формата : 6 кадров
Идентификатор кодека : V_MPEG4/ISO/AVC
Продолжительность : 1 ч. 41 м.
Битрейт : 1665 Кбит/сек
Ширина : 1024 пикселя
Высота : 436 пикселей
Соотношение сторон : 2,35:1
Частота кадров : 25,000 кадров/сек
Цветовое пространство : YUV
Субдискретизация насыщенности : 4:2:0
Битовая глубина : 8 бит
Тип развёртки : Прогрессивная
Бит/(Пиксели*Кадры) : 0.149
Размер потока : 1,15 Гбайт (79%)
Библиотека кодирования : x264 core 120 r2164 da19765
Настройки программы : cabac=1 / ref=6 / deblock=1:-3:-3 / analyse=0x3:0x133 / me=umh / subme=10 / psy=1 / psy_rd=1.00:0.10 / mixed_ref=1 / me_range=32 / chroma_me=1 / trellis=2 / 8x8dct=1 / cqm=0 / deadzone=21,11 / fast_pskip=0 / chroma_qp_offset=-3 / threads=6 / sliced_threads=0 / nr=0 / decimate=1 / interlaced=0 / bluray_compat=0 / constrained_intra=0 / bframes=5 / b_pyramid=2 / b_adapt=2 / b_bias=0 / direct=3 / weightb=1 / open_gop=0 / weightp=2 / keyint=250 / keyint_min=23 / scenecut=40 / intra_refresh=0 / rc_lookahead=40 / rc=2pass / mbtree=1 / bitrate=1665 / ratetol=1.0 / qcomp=0.60 / qpmin=10 / qpmax=51 / qpstep=4 / cplxblur=20.0 / qblur=0.5 / ip_ratio=1.40 / aq=1:1.00
Default : Да
Forced : Нет

Аудио
Идентификатор : 2
Формат : AC-3
Формат/Информация : Audio Coding 3
Расширение режима : CM (complete main)
Идентификатор кодека : A_AC3
Продолжительность : 1 ч. 41 м.
Вид битрейта : Постоянный
Битрейт : 384 Кбит/сек
Каналы : 6 каналов
Расположение каналов : Front: L C R, Side: L R, LFE
Частота : 48,0 КГц
Битовая глубина : 16 бит
Метод сжатия : С потерями
Размер потока : 278 Мбайт (19%)
Заголовок : оригинал
Язык : Russian
Default : Да
Forced : Нет





   Похожие торренты   Торрент   Размер 
В этой теме нет новых непрочитанных сообщений. Мамы (2012) BDRip 1080p

41 | 2

10.6 ГБ

В этой теме нет новых непрочитанных сообщений. Мамы (2012) BDRip-AVC от ExKinoRay

64 | 9

2.22 ГБ

В этой теме нет новых непрочитанных сообщений. Мамы (2012) BDRip 720p

10 | 2

4.17 ГБ

В этой теме нет новых непрочитанных сообщений. Мамы (2012) BDRip 1080p

286 | 37

4.37 ГБ

В этой теме нет новых непрочитанных сообщений. Мамы (2012) BDRip-AVC | iPad

20 | 4

1.67 ГБ

В этой теме нет новых непрочитанных сообщений. Мамы (2012) BDRip от HQ-ViDEO

80 | 5

1.46 ГБ

В этой теме нет новых непрочитанных сообщений. Мамы (2012) BDRip от HELLYWOOD

28 | 6

1.45 ГБ




Вы не можете начинать темы
Вы не можете отвечать на сообщения
Вы не можете редактировать свои сообщения
Вы не можете удалять свои сообщения
Вы не можете добавлять вложения

Перейти:  
Для Мосгорсуда, Роскомнадзора и рекламодателей: mosgorsud-torrent[собачка]yandex.ru
 Вход
ppkBB3cker v.2 © 2008-2014 @ PPK
[ Time : 0.052s | 14 Queries | GZIP : Off ]

Торрент трекер RUTOR.IN, Не можете зайти на rutor.org? Какой новый адрес рутор? Какое зеркало рутор? Не работает rutor.org и зеркала? Тогда наш торрент специально для вас. Rutor.in неофициальное зеркало rutor. В случае если у Вас заблокирован rutor или вдруг Вы не можете на него зайти, то Вы без труда сможете скачать бесплатно и без рекламы последние новинки кино, игр, сериалов и прочего у нас, на Rutor.in. Не нужно использовать прокси, чтобы зайти на рутор, достаточно воспользоваться нашим ресурсом. Все новые фильмы, игры, сериалы, книги и музыка за 2013 и 2014 годы через торрент бесплатно. Скачивайте фильмы в хорошем качестве, игры для пк, xbox, playstation без регистрации. У нас вы найдете новые Зарубежные сериалы и Русские сериалы 2013, 2014, 2015 годов. Оставайтесь с нами, качайте любимые фильмы, игры, сериалы, книги и музыку.