img image001 image001 image001 image001 image001 image001 image001 image001 image001 image001 image001 image001 image001 image001 image001

Planets Sun Sun Sun
Статистика раздачи
Автор: Снежана | Размер: 698.91 МБ | Добавлен: 24 июл 2013
Раздают: 2    Качают: 2
Скачать торрент
Скачать торрент
Описание торрента

СообщениеДобавлено: 24 июл 2013 

Самоубийцы
(2012)
DVDRip-AVC [Hi10P] от FREEISLAND




Год выхода: 2012
Жанр: Комедия
Режиссер: Егор Баранов
В ролях: Евгений Стычкин, Алексей Воробьев, Оксана Акиньшина, Гоша Куценко, Вилле Хаапасало, Марат Башаров, Михаил Полицеймако, Александр Стриженов, Евгений Рахманько, Даниил Меркулов и др.

Описание:
Комедия о головокружительных приключениях трех друзей — Алексея, Толика и Марины, которые решили свести счеты с жизнью. Собрав вокруг себя неприкаянных единомышленников, новые друзья решают напоследок исполнить по последнему желанию друг друга. Это, на первый взгляд, безобидное решение превращает жизнь героев в непрерывный калейдоскоп феерических событий. Чем активнее друзья исполняют самые неожиданные желания друг друга, тем невероятнее истории, в которые они попадают.



Официальный сайт

Страна: Россия
Продолжительность: 1 ч. 24 м. 41 с. (титры обрезаны в целях экономии битрейта)
Перевод: оригинал [Лицензия]
Оригинальная разбивка на главы: сохранена

Качество: DVDRip-AVC Hi10P (SSIM: 0.9856722)
Исходник: DVD9
Контейнер: MKV
Видео кодек: x264 High10@L5.1 (не совместим с большинством бытовых плееров)
Аудио кодек: AC3
Видео: AVC at 960 Кбит/сек, 720 x 446 @ 1024 x 446 (2.296) at 25.000 fps
Аудио: AC-3 at 192 Кбит/сек, 2 канала, 48,0 КГц
Субтитры: нет


Общее
Уникальный идентификатор : 198722810323610932666800925607902146591 (0x95809F00A39F9F818A94142DA12D701F)
Полное имя : Самоубийцы (2012) DVDRip-Hi10P.mkv
Формат : Matroska
Версия формата : Version 2
Размер файла : 699 Мбайт
Продолжительность : 1 ч. 24 м.
Общий поток : 1154 Кбит/сек
Название фильма : релиз от FREEISLAND.ORG
Дата кодирования : UTC 2012-04-03 19:30:20
Программа кодирования : mkvmerge v5.4.0 ('Piper') built on Mar 10 2012 13:34:39
Библиотека кодирования : libebml v1.2.3 + libmatroska v1.3.0

Видео
Идентификатор : 1
Формат : AVC
Формат/Информация : Advanced Video Codec
Профиль формата : High 10@L5.1
Параметр CABAC формата : Да
Параметр ReFrames формата : 16 кадров
Идентификатор кодека : V_MPEG4/ISO/AVC
Продолжительность : 1 ч. 24 м.
Битрейт : 960 Кбит/сек
Ширина : 720 пикселей
Высота : 446 пикселей
Соотношение сторон : 2,25:1
Частота кадров : 25,000 кадров/сек
Цветовое пространство : YUV
Субдискретизация насыщенности : 4:2:0
Битовая глубина : 10 бит
Тип развёртки : Прогрессивная
Бит/(Пиксели*Кадры) : 0.120
Размер потока : 569 Мбайт (81%)
Библиотека кодирования : x264 core 122 r2184+663+27 f7228ce tMod [10-bit@all X86]
Настройки программы : cabac=1 / ref=16 / deblock=1:-1:-1 / analyse=0x3:0x133 / me=umh / subme=11 / psy=1 / fade_compensate=0.00 / psy_rd=1.00:0.00 / mixed_ref=1 / me_range=64 / chroma_me=1 / trellis=2 / 8x8dct=1 / cqm=0 / deadzone=21,11 / fast_pskip=0 / chroma_qp_offset=-2 / threads=12 / sliced_threads=0 / nr=0 / decimate=1 / interlaced=0 / bluray_compat=0 / constrained_intra=0 / fgo=0 / bframes=12 / b_pyramid=2 / b_adapt=2 / b_bias=0 / direct=3 / weightb=1 / open_gop=0 / weightp=2 / keyint=250 / keyint_min=25 / scenecut=40 / intra_refresh=0 / rc=2pass / mbtree=0 / bitrate=960 / ratetol=1.0 / qcomp=1.00 / qpmin=0 / qpmax=48 / qpstep=4 / cplxblur=20.0 / qblur=0.5 / ip_ratio=1.40 / pb_ratio=1.30 / aq=4:1.00
Default : Да
Forced : Нет
Основные цвета : BT.601-6 525, BT.1358 525, BT.1700 NTSC, SMPTE 170M
Характеристики трансфера : BT.601-6 525, BT.601-6 625, BT.1358 525, BT.1358 625, BT.1700 NTSC, SMPTE 170M
Коэффициенты матрицы : BT.601-6 525, BT.1358 525, BT.1700 NTSC, SMPTE 170M

Аудио
Идентификатор : 2
Формат : AC-3
Формат/Информация : Audio Coding 3
Расширение режима : CM (complete main)
Идентификатор кодека : A_AC3
Продолжительность : 1 ч. 24 м.
Вид битрейта : Постоянный
Битрейт : 192 Кбит/сек
Каналы : 2 канала
Расположение каналов : Front: L R
Частота : 48,0 КГц
Битовая глубина : 16 бит
Метод сжатия : С потерями
Размер потока : 116 Мбайт (17%)
Язык : Russian
Default : Да
Forced : Нет

Меню
00:00:00.000 : :01
00:01:29.280 : :02
00:07:51.840 : :03
00:21:25.920 : :04
00:30:36.000 : :05
00:39:58.080 : :06
00:50:51.840 : :07
01:03:26.400 : :08
01:14:47.520 : :09



















Релиз от:

Если у вас возникают вопросы типа:
-почему у меня есть звук и отсутствует изображение?
-почему у меня рассыпается картинка?
-почему у меня картинка фонит синевой или зеленью?
-зачем и кому всё это нужно?
и тому подобные, читаем FAQ.
ссылка на FAQ запрещена правилами.

По этому, гуглим на тему спойлера (Что такое 10-ти битное видео (High 10 Profile - Hi10P), и как его смотреть?).



   Похожие торренты   Торрент   Размер 
В этой теме нет новых непрочитанных сообщений. Мамы (2012) DVDRip-AVC [Hi10P] от FREEISLAND

10 | 3

698.71 МБ

В этой теме нет новых непрочитанных сообщений. Zолушка (2012) DVDRip-AVC [Hi10P] от FREEISLAND

0 | 4

697.94 МБ

В этой теме нет новых непрочитанных сообщений. Няньки (2012) DVDRip-AVC [Hi10P] от FREEISLAND

15 | 3

698.59 МБ

В этой теме нет новых непрочитанных сообщений. Шпион (2012) DVDRip-AVC [Hi10P] от FREEISLAND

6 | 2

699.47 МБ

В этой теме нет новых непрочитанных сообщений. Ворон / The Raven (2012) DVDRip-AVC [Hi10P] от FREEISLAND

1 | 4

698.92 МБ

В этой теме нет новых непрочитанных сообщений. Защитник / Safe (2012) DVDRip-AVC [Hi10P] от FREEISLAND

0 | 4

698.44 МБ

В этой теме нет новых непрочитанных сообщений. Прометей / Prometheus (2012) DVDRip-AVC [Hi10P] от FREEISLAND

1 | 4

697.32 МБ




Вы не можете начинать темы
Вы не можете отвечать на сообщения
Вы не можете редактировать свои сообщения
Вы не можете удалять свои сообщения
Вы не можете добавлять вложения

Перейти:  
Для Мосгорсуда, Роскомнадзора и рекламодателей: mosgorsud-torrent[собачка]yandex.ru
 Вход
ppkBB3cker v.2 © 2008-2014 @ PPK
[ Time : 0.553s | 15 Queries | GZIP : Off ]

Торрент трекер RUTOR.IN, Не можете зайти на rutor.org? Какой новый адрес рутор? Какое зеркало рутор? Не работает rutor.org и зеркала? Тогда наш торрент специально для вас. Rutor.in неофициальное зеркало rutor. В случае если у Вас заблокирован rutor или вдруг Вы не можете на него зайти, то Вы без труда сможете скачать бесплатно и без рекламы последние новинки кино, игр, сериалов и прочего у нас, на Rutor.in. Не нужно использовать прокси, чтобы зайти на рутор, достаточно воспользоваться нашим ресурсом. Все новые фильмы, игры, сериалы, книги и музыка за 2013 и 2014 годы через торрент бесплатно. Скачивайте фильмы в хорошем качестве, игры для пк, xbox, playstation без регистрации. У нас вы найдете новые Зарубежные сериалы и Русские сериалы 2013, 2014, 2015 годов. Оставайтесь с нами, качайте любимые фильмы, игры, сериалы, книги и музыку.
cron