img image001 image001 image001 image001 image001 image001 image001 image001 image001 image001 image001 image001 image001 image001 image001

Planets Sun Sun Sun
Статистика раздачи
Автор: Снежана | Размер: 5.71 ГБ | Добавлен: 24 июл 2013
Раздают: 0    Качают: 2
Скачать торрент
Скачать торрент
Описание торрента

СообщениеДобавлено: 24 июл 2013 

#77

Информация о фильме
Название: Стэп бай стэп
Год создания: 2011
Жанр: комедия
Режиссер: Игорь Коробейников
В ролях: Анна Дарк, Максим Дрозд, Владимир Скворцов, Андрей Александрин, Эвелина Блёданс, Николай Бурлак, Юлия Беретта, Сергей Зарубин, Юрий Лагута, Олег Леушин

О фильме: Лера Ласковая, преподаватель школы искусств, отстаивая интересы студентов и коллег, вступает в неравный бой с Артемом Рудаковым, олигархом, привыкшим все подчинять своей воле и желанию. Молодая женщина, несмотря на угрозы и безнадежность ситуации, верит в справедливость и настоящие чувства. Ей удается объединить вокруг себя единомышленников и дать отпор «сильным мира сего». Смешные и нелепые попытки Леры и её команды спасти Школу, непосредственность и наивность, вызывают у Артема Рудакова недоумение, а затем неподдельный интерес. Встретившись с Лерой, он понимает, что это та настоящая и единственная любовь, к которой он стремился всю жизнь, идя навстречу к ней шаг за шагом.



Выпущено: Россия / New Line Cinema
Продолжительность: 01:41:10
Озвучивание: Оригинал [лицензия]

Файл
Формат: DVD-Video
Качество: DVD9
Видео: PAL 16:9 (720x576(0.572)) MPEG Video, 25,000 кадр/сек, 5929 Кбит/сек
Аудио: Russian (Dolby AC3, 6 ch) 448 Кбит/сек, 48,0 КГц
Размер: 5.71 GB
Скачать: Сэмпл

Title:
Size: 5.71 Gb ( 5 989 414 KBytes ) - DVD-9
Enabled regions: 1, 2, 3, 4, 5, 6, 7, 8

VTS_01 :
Play Length: 00:00:10
Video: PAL 16:9 (720x576) VBR, Auto Letterboxed

VTS_02 :
Play Length: 00:00:22
Video: PAL 16:9 (720x576) VBR, Auto Letterboxed
Audio:
Not specified (Dolby AC3, 6 ch)

VTS_03 :
Play Length: 01:41:10
Video: PAL 16:9 (720x576) VBR, Auto Letterboxed
Audio:
Russian (Dolby AC3, 6 ch)
Subtitles:
English

VTS_04 :
Play Length: 00:18:06
Video: PAL 4:3 (720x576) VBR
Audio:
Russian (LinearPCM, 2 ch)

VTS_05 :
Play Length: 00:00:15
Video: PAL 4:3 (720x576) VBR
Audio:
Russian (Dolby AC3, 2 ch)

VTS_06 :
Play Length: 00:01:47
Video: PAL 16:9 (720x576) VBR, Auto Letterboxed
Audio:
Russian (Dolby AC3, 2 ch)

Menu Video:
PAL 16:9 (720x576) VBR
Auto Pan&Scan, Auto Letterboxed
Menu English Language Unit :
Root Menu
Общее
Полное имя : J:Новинки 2012Step.by.step.2011.DVD9VIDEO_TSVTS_03_1.VOB
Формат : MPEG-PS
Размер файла : 1024 Мбайт
Продолжительность : 22 м.
Режим общего битрейта : Переменный
Общий поток : 6506 Кбит/сек

Видео
Идентификатор : 224 (0xE0)
Формат : MPEG Video
Версия формата : Version 2
Профиль формата : Main@Main
Параметр BVOP формата : Да
Параметр матрицы формата : Выборочная
Продолжительность : 22 м.
Вид битрейта : Переменный
Битрейт : 5929 Кбит/сек
Максимальный битрейт : 6000 Кбит/сек
Ширина : 720 пикселей
Высота : 576 пикселей
Соотношение сторон : 16:9
Частота кадров : 25,000 кадров/сек
Стандарт вещания : PAL
Цветовое пространство : YUV
Субдискретизация насыщенности : 4:2:0
Битовая глубина : 8 бит
Тип развёртки : Чересстрочная
Порядок развёртки : Верхнее поле первое
Метод сжатия : С потерями
Бит/(Пиксели*Кадры) : 0.572
Размер потока : 933 Мбайт (91%)

Аудио
Идентификатор : 189 (0xBD)-128 (0x80)
Формат : AC-3
Формат/Информация : Audio Coding 3
Расширение режима : CM (complete main)
Режим смешивания : DVD-Video
Продолжительность : 21 м.
Вид битрейта : Постоянный
Битрейт : 448 Кбит/сек
Каналы : 6 каналов
Расположение каналов : Front: L C R, Side: L R, LFE
Частота : 48,0 КГц
Битовая глубина : 16 бит
Метод сжатия : С потерями
Задержка видео : 72 мс.
Размер потока : 70,5 Мбайт (7%)

Текст
Идентификатор : 189 (0xBD)-32 (0x20)
Формат : RLE
Формат/Информация : Run-length encoding
Режим смешивания : DVD-Video
Продолжительность : 21 м.
Задержка видео : 7 с. 320 мс.


Скриншоты меню



Скриншоты




   Похожие торренты   Торрент   Размер 
В этой теме нет новых непрочитанных сообщений. Стэп бай стэп (2011) DVDRip | Лицензия

19 | 3

1.37 ГБ

В этой теме нет новых непрочитанных сообщений. Стэп бай стэп (2011) DVDRip | Лицензия

1 | 2

700.95 МБ

В этой теме нет новых непрочитанных сообщений. Стэп бай стэп (2011) DVDRip-AVC от R.G. AVI | AVC | Лицензия

1 | 2

2.05 ГБ

В этой теме нет новых непрочитанных сообщений. Дом (2011) DVD9 | Лицензия

0 | 2

7.19 ГБ

В этой теме нет новых непрочитанных сообщений. 2 дня (2011) DVD9 | Лицензия

0 | 2

5.26 ГБ

В этой теме нет новых непрочитанных сообщений. Фея / La fee (2011) DVD9 | Лицензия

2 | 3

5.07 ГБ

В этой теме нет новых непрочитанных сообщений. 4 дня в мае (2011) DVD9 | Лицензия

1 | 3

5.92 ГБ




Вы не можете начинать темы
Вы не можете отвечать на сообщения
Вы не можете редактировать свои сообщения
Вы не можете удалять свои сообщения
Вы не можете добавлять вложения

Перейти:  
Для Мосгорсуда, Роскомнадзора и рекламодателей: mosgorsud-torrent[собачка]yandex.ru
 Вход
ppkBB3cker v.2 © 2008-2014 @ PPK
[ Time : 0.026s | 15 Queries | GZIP : Off ]

cron