img image001 image001 image001 image001 image001 image001 image001 image001 image001 image001 image001 image001 image001 image001 image001

Planets Sun Sun Sun
Статистика раздачи
Автор: Снежана | Размер: 4.37 ГБ | Добавлен: 24 июл 2013
Раздают: 286    Качают: 37
Скачать торрент
Скачать торрент
Описание торрента

СообщениеДобавлено: 24 июл 2013 

#77

Информация о фильме
Название: Мамы
Год выхода: 2012
Жанр: мелодрама, комедия
Режиссер: Евгений Абызов, Сарик Андреасян, Алан Бадоев, Дмитрий Дюжев, Ашот Кещян, Кирилл Козлов, Тихон Корнев, Карен Оганесян, Эльдар Салаватов
В ролях: Сергей Безруков, Дмитрий Дюжев, Михаил Пореченков, Егор Бероев, Гоша Куценко, Петр Федоров, Федор Добронравов, Иван Добронравов, Игорь Верник, Александр Олешко

О фильме: Каждый год в день 8-го марта телефонные сети России передают миллионы звонков и смс-сообщений. Трудолюбивые аналитики подсчитали, что абсолютное большинство телефонных звонков адресовано самым главным женщинам в жизни каждого человека — мамам.

Мы выросли, и заготовленные заранее аппликации и букеты цветов, купленные до маминого пробуждения, — давно забытые детские привычки. Отныне мы поздравляем мам по-взрослому: дожидаемся, когда они проснутся, и набираем телефонный номер.

Но что, если случится коллапс, и из-за пиковой перегруженности телефонная сеть рухнет? Итак, связи нет. Что делать? Кто-то будет ждать, пока её восстановят — поздравит вечером или даже на следующий день. А другие, как и герои нашего киноальманаха, поменяют свои планы, чтобы поздравить своих мам именно сегодня… лично… как в детстве!

Восемь разных поздравлений и жизненных ситуаций. Восемь разных МАМ.



Выпущено: Enjoy Movies
Продолжительность: 01:41:15
Перевод: Оригинал

Файл
Кодек: x264
Качество: BDRip (источник: Blu-ray Disc)
Видео: 1920x816 (2,35:1), 25 fps, 5733 kbps
Звук: 48 kHz, AC-3, 6 ch, 448 kbps
Скачать: сэмпл

Скриншоты

Общее
Уникальный идентификатор : 223196141771278158009678645765861793016 (0xA7EA0367084E462AAD9FC34391C7DCF8)
Полное имя : Mamy.2012.BDRip.1080p.Rus.mkv
Формат : Matroska
Версия формата : Version 2
Размер файла : 4,37 Гбайт
Продолжительность : 1 ч. 41 м.
Общий поток : 6181 Кбит/сек
Название фильма : Мамы (2012)
Дата кодирования : UTC 2012-04-04 04:13:27
Программа кодирования : mkvmerge v4.0.0 ('The Stars were mine') сборка от Jun 6 2010 16:18:42
Библиотека кодирования : libebml v1.0.0 + libmatroska v1.0.0

Видео
Идентификатор : 1
Формат : AVC
Формат/Информация : Advanced Video Codec
Профиль формата : High@L4.1
Параметр CABAC формата : Да
Параметр ReFrames формата : 5 кадров
Идентификатор кодека : V_MPEG4/ISO/AVC
Продолжительность : 1 ч. 41 м.
Битрейт : 5733 Кбит/сек
Ширина : 1920 пикселей
Высота : 816 пикселей
Соотношение сторон : 2,35:1
Частота кадров : 25,000 кадров/сек
Цветовое пространство : YUV
Субдискретизация насыщенности : 4:2:0
Битовая глубина : 8 бит
Тип развёртки : Прогрессивная
Бит/(Пиксели*Кадры) : 0.146
Размер потока : 3,97 Гбайт (91%)
Заголовок : Release by AlexKa
Библиотека кодирования : x264 core 122 r2184 5c85e0a
Настройки программы : cabac=1 / ref=5 / deblock=1:0:0 / analyse=0x3:0x133 / me=umh / subme=10 / psy=1 / psy_rd=1.00:0.10 / mixed_ref=1 / me_range=32 / chroma_me=1 / trellis=2 / 8x8dct=1 / cqm=0 / deadzone=21,11 / fast_pskip=0 / chroma_qp_offset=-3 / threads=12 / sliced_threads=0 / nr=0 / decimate=0 / interlaced=0 / bluray_compat=0 / constrained_intra=0 / bframes=5 / b_pyramid=2 / b_adapt=2 / b_bias=0 / direct=3 / weightb=1 / open_gop=0 / weightp=2 / keyint=250 / keyint_min=25 / scenecut=40 / intra_refresh=0 / rc_lookahead=60 / rc=2pass / mbtree=1 / bitrate=5733 / ratetol=1.0 / qcomp=0.60 / qpmin=0 / qpmax=69 / qpstep=4 / cplxblur=20.0 / qblur=0.5 / ip_ratio=1.40 / aq=1:1.00
Язык : Russian

Аудио
Идентификатор : 2
Формат : AC-3
Формат/Информация : Audio Coding 3
Расширение режима : CM (complete main)
Идентификатор кодека : A_AC3
Продолжительность : 1 ч. 41 м.
Вид битрейта : Постоянный
Битрейт : 448 Кбит/сек
Каналы : 6 каналов
Расположение каналов : Front: L C R, Side: L R, LFE
Частота : 48,0 КГц
Битовая глубина : 16 бит
Метод сжатия : С потерями
Размер потока : 325 Мбайт (7%)
Язык : Russian

Меню
00:00:00.000 : :Chapter 01
00:08:29.280 : :Chapter 02
00:13:52.319 : :Chapter 03
00:19:50.080 : :Chapter 04
00:27:04.679 : :Chapter 05
00:33:13.000 : :Chapter 06
00:41:07.200 : :Chapter 07
00:47:54.160 : :Chapter 08
00:53:19.000 : :Chapter 09
00:59:44.800 : :Chapter 10
01:04:34.840 : :Chapter 11
01:11:15.600 : :Chapter 12
01:17:39.320 : :Chapter 13
01:25:44.640 : :Chapter 14
01:30:02.120 : :Chapter 15
01:34:37.880 : :Chapter 16
01:41:14.120 : :Chapter 17



   Похожие торренты   Торрент   Размер 
В этой теме нет новых непрочитанных сообщений. Мамы (2012) BDRip 1080p

41 | 2

10.6 ГБ

В этой теме нет новых непрочитанных сообщений. С новым годом, мамы! (2012) BDRip 1080p

95 | 12

4.37 ГБ

В этой теме нет новых непрочитанных сообщений. С новым годом, мамы! (2012) BDRip 1080p | Лицензия

32 | 11

5.34 ГБ

В этой теме нет новых непрочитанных сообщений. С новым годом, мамы! (2012) Blu-ray 1080p

4 | 2

13.29 ГБ

В этой теме нет новых непрочитанных сообщений. Мамы (2012) BDRip-AVC от ExKinoRay

64 | 9

2.22 ГБ

В этой теме нет новых непрочитанных сообщений. Мамы (2012) BDRip от HQ-ViDEO

80 | 5

1.46 ГБ

В этой теме нет новых непрочитанных сообщений. Мамы (2012) BDRip-AVC | iPad

20 | 4

1.67 ГБ




Вы не можете начинать темы
Вы не можете отвечать на сообщения
Вы не можете редактировать свои сообщения
Вы не можете удалять свои сообщения
Вы не можете добавлять вложения

Перейти:  
Для Мосгорсуда, Роскомнадзора и рекламодателей: mosgorsud-torrent[собачка]yandex.ru
 Вход
ppkBB3cker v.2 © 2008-2014 @ PPK
[ Time : 0.039s | 15 Queries | GZIP : Off ]

cron