img image001 image001 image001 image001 image001 image001 image001 image001 image001 image001 image001 image001 image001 image001 image001

Planets Sun Sun Sun
Статистика раздачи
Автор: Снежана | Размер: 2.9 ГБ | Добавлен: 24 июл 2013
Раздают: 13    Качают: 6
Скачать торрент
Скачать торрент
Описание торрента

СообщениеДобавлено: 24 июл 2013 

Снайпер: Оружие возмездия
(2009)
DVDRip-AVC [Hi10P] от FREEISLAND



Год выхода: 2009
Жанр: Военный
Режиссер: Александр Ефремов
В ролях: Дмитрий Певцов, Мария Миронова, Алина Сергеева, Александр Ефремов, Павел Делонг, Владас Багдонас, Сергей Беляев, Павел Харланчук, Андрей Шилько, Михаил Есьман

Описание:
В 1942 году под Сталинградом группа старшего лейтенанта Яшина сталкивается с хитрым противником — немецким капитаном Карлом Кляйстом. В подстроенной им ловушке погибает девушка-снайпер Алеся Микулич, а сам Яшин получает тяжелое ранение. Война закончена, и Яшин теперь исполняет роль коменданта в небольшом немецком городке. Его помощник находит в здании старой мануфактуры подозрительные чертежи. В происках тайного оружия нацистской Германии, в городок приезжает инженер Михайлов. Вскоре выясняется, что секретную лабораторию охраняет группа немецких снайперов под руководством Карла Кляйста. Яшину предоставляется возможность отомстить за свою убитую любовь.



Страна: Россия, Беларусь
Выпущено: Беларусьфильм, "АРТ Синема Групп"
Продолжительность: 2 ч. 43 м. 51 с.
Перевод: Оригинал
Примечание: Сериал смонтирован под полнометражный фильм.

Внимание!
Рип в High 10 Profile, в настоящее время не поддерживается большинством аппаратных проигрывателей.
Для корректного воспроизведения может потребоваться обновление ПО.
Владельцам несовместимого железа просьба не беспокоить, на трекере есть альтернативные релизы.

Качество: DVDRip-AVC Hi10P (SSIM: 0.9821734)
Исходник: DVD9
Контейнер: MKV
Видео кодек: x264 High10@L5.1
Аудио кодек: AC3
Видео: AVC at 2082 Кбит/сек, 712 x 432 @ 760 x 432 (1.759) at 25.000 fps
Аудио: AC-3 at 448 Кбит/сек, 6 каналов, 48,0 КГц
Субтитры: нет


Общее
Уникальный идентификатор : 219599953195701866486487376164748436520 (0xA535699DD4CCE090AC1BCBA9D9EAA428)
Полное имя : Снайпер. Оружие возмездия (2009) DVDRip-Hi10P.mkv
Формат : Matroska
Версия формата : Version 2
Размер файла : 2,90 Гбайт
Продолжительность : 2 ч. 43 м.
Общий поток : 2531 Кбит/сек
Название фильма : релиз от FREEISLAND.ORG
Дата кодирования : UTC 2012-04-09 14:18:13
Программа кодирования : mkvmerge v5.5.0 ('Healer') built on Apr 6 2012 21:43:24
Библиотека кодирования : libebml v1.2.3 + libmatroska v1.3.0

Видео
Идентификатор : 1
Формат : AVC
Формат/Информация : Advanced Video Codec
Профиль формата : High 10@L5.1
Параметр CABAC формата : Да
Параметр ReFrames формата : 16 кадров
Идентификатор кодека : V_MPEG4/ISO/AVC
Продолжительность : 2 ч. 43 м.
Битрейт : 2082 Кбит/сек
Ширина : 712 пикселей
Высота : 432 пикселя
Соотношение сторон : 16:9
Частота кадров : 25,000 кадров/сек
Цветовое пространство : YUV
Субдискретизация насыщенности : 4:2:0
Битовая глубина : 10 бит
Тип развёртки : Прогрессивная
Бит/(Пиксели*Кадры) : 0.271
Размер потока : 2,33 Гбайт (80%)
Библиотека кодирования : x264 core 122 r2184+663+27 f7228ce tMod [10-bit@all X86_64]
Настройки программы : cabac=1 / ref=16 / deblock=1:-1:-1 / analyse=0x3:0x133 / me=umh / subme=11 / psy=1 / fade_compensate=0.00 / psy_rd=1.00:0.10 / mixed_ref=1 / me_range=64 / chroma_me=1 / trellis=2 / 8x8dct=1 / cqm=0 / deadzone=21,11 / fast_pskip=0 / chroma_qp_offset=-3 / threads=12 / sliced_threads=0 / nr=0 / decimate=1 / interlaced=0 / bluray_compat=0 / constrained_intra=0 / fgo=0 / bframes=13 / b_pyramid=2 / b_adapt=2 / b_bias=0 / direct=3 / weightb=1 / open_gop=0 / weightp=2 / keyint=250 / keyint_min=25 / scenecut=40 / intra_refresh=0 / rc=2pass / mbtree=0 / bitrate=2082 / ratetol=1.0 / qcomp=1.00 / qpmin=0 / qpmax=48 / qpstep=4 / cplxblur=20.0 / qblur=0.5 / ip_ratio=1.40 / pb_ratio=1.30 / aq=4:1.00
Default : Да
Forced : Нет
Основные цвета : BT.601-6 525, BT.1358 525, BT.1700 NTSC, SMPTE 170M
Характеристики трансфера : BT.601-6 525, BT.601-6 625, BT.1358 525, BT.1358 625, BT.1700 NTSC, SMPTE 170M
Коэффициенты матрицы : BT.601-6 525, BT.1358 525, BT.1700 NTSC, SMPTE 170M

Аудио
Идентификатор : 2
Формат : AC-3
Формат/Информация : Audio Coding 3
Расширение режима : CM (complete main)
Идентификатор кодека : A_AC3
Продолжительность : 2 ч. 43 м.
Вид битрейта : Постоянный
Битрейт : 448 Кбит/сек
Каналы : 6 каналов
Расположение каналов : Front: L C R, Side: L R, LFE
Частота : 48,0 КГц
Битовая глубина : 16 бит
Метод сжатия : С потерями
Размер потока : 525 Мбайт (18%)
Язык : Russian
Default : Да
Forced : Нет

















СЭМПЛ

Релиз от:

Если у вас возникают вопросы типа:
-почему у меня есть звук и отсутствует изображение?
-почему у меня рассыпается картинка?
-почему у меня картинка фонит синевой или зеленью?
-зачем и кому всё это нужно?
и тому подобные, читаем FAQ.
ссылка на FAQ запрещена правилами.

По этому, гуглим на тему спойлера (Что такое 10-ти битное видео (High 10 Profile - Hi10P), и как его смотреть?).



   Похожие торренты   Торрент   Размер 
В этой теме нет новых непрочитанных сообщений. Снайпер. Оружие возмездия (2009) DVDRip

36 | 8

2.74 ГБ

В этой теме нет новых непрочитанных сообщений. Снайпер: Оружие возмездия (2009) DVDRip - Zona-X

73 | 16

2.04 ГБ

В этой теме нет новых непрочитанных сообщений. Снайпер: Оружие возмездия (2009) DVDRip | КПК от Generalfilm

42 | 11

560.22 МБ

В этой теме нет новых непрочитанных сообщений. Снайпер: Оружие возмездия (2009) DVD9

155 | 13

7.43 ГБ

В этой теме нет новых непрочитанных сообщений. Снайпер: Оружие возмездия (2009) DVD5

15 | 6

4.18 ГБ

В этой теме нет новых непрочитанных сообщений. Снайпер. Оружие возмездия (2009) BDRip 720p от ImperiaFilm & FilmTracker

435 | 20

2.92 ГБ

В этой теме нет новых непрочитанных сообщений. Слепой: Оружие возмездия (2008) DVDRip от Generalfilm

34 | 6

2.16 ГБ




Вы не можете начинать темы
Вы не можете отвечать на сообщения
Вы не можете редактировать свои сообщения
Вы не можете удалять свои сообщения
Вы не можете добавлять вложения

Перейти:  
Для Мосгорсуда, Роскомнадзора и рекламодателей: mosgorsud-torrent[собачка]yandex.ru
 Вход
ppkBB3cker v.2 © 2008-2014 @ PPK
[ Time : 0.032s | 15 Queries | GZIP : Off ]

Торрент трекер RUTOR.IN, Не можете зайти на rutor.org? Какой новый адрес рутор? Какое зеркало рутор? Не работает rutor.org и зеркала? Тогда наш торрент специально для вас. Rutor.in неофициальное зеркало rutor. В случае если у Вас заблокирован rutor или вдруг Вы не можете на него зайти, то Вы без труда сможете скачать бесплатно и без рекламы последние новинки кино, игр, сериалов и прочего у нас, на Rutor.in. Не нужно использовать прокси, чтобы зайти на рутор, достаточно воспользоваться нашим ресурсом. Все новые фильмы, игры, сериалы, книги и музыка за 2013 и 2014 годы через торрент бесплатно. Скачивайте фильмы в хорошем качестве, игры для пк, xbox, playstation без регистрации. У нас вы найдете новые Зарубежные сериалы и Русские сериалы 2013, 2014, 2015 годов. Оставайтесь с нами, качайте любимые фильмы, игры, сериалы, книги и музыку.
cron