img image001 image001 image001 image001 image001 image001 image001 image001 image001 image001 image001 image001 image001 image001 image001

Planets Sun Sun Sun
Статистика раздачи
Автор: Снежана | Размер: 4.37 ГБ | Добавлен: 24 июл 2013
Раздают: 1    Качают: 3
Скачать торрент
Скачать торрент
Описание торрента

СообщениеДобавлено: 24 июл 2013 

#77

Информация о фильме
Название: Тайна Чингис Хаана
Год выхода: 2009
Жанр: Боевик, драма, история
Режиссер: Андрей Борисов
В ролях: Дуард Ондар, Сюзанна Ооржак, Оргил Махаан, Хурматулла Утяшев, Степанида Борисова, Олег Тактаров, Тувшинхуу Мунхзаяа, Аян Успун...

О фильме:
Фильм снят по роману Николая Лугинова "По велению Чингисхана". Три друга детства. Три названных брата. Один посвящен в таинство и станет шаманом. Двое пойдут по пути войны, и народ признает в них вождей. Но лишь одному из них суждено стать повелителем всей степи. Он избран Вечным Синим Небом. И само небо пошлет ему испытания. Любовь к женщине сделает его воином. Верность закону приведет к братоубийству. Стремление к мирной жизни заставит начать войну. Совет 9-ти язычных племен провозгласит его владыкой и даст ему имя древнего божества - Чингис Хаан. Его воины дойдут до западных городов, южных морей, северных гор.



Страна: США, Россия, Монголия
Продолжительность: 02:07:17
Перевод: Оригинал

Файл
Кодек: H264
Качество: BDRip 1080p
Видео: 1920x816, 4463 Kbps, 23,976 fps
Звук: 48 kHz, AC3, 6c, 448 kbps
Субтитры: Немецкие

Семпл



Общее
Формат : Matroska
Версия формата : Version 2
Размер файла : 4,37 Гбайт
Продолжительность : 2 ч. 7 м.
Общий поток : 4910 Кбит/сек
Название фильма : Тайна Чингис Хаана (2009) BDRip 1080p от Dimok
Дата кодирования : UTC 2012-04-10 21:59:12
Программа кодирования : mkvmerge v5.4.0 ('Piper') built on Mar 10 2012 13:34:39
Библиотека кодирования : libebml v1.2.3 + libmatroska v1.3.0

Видео
Идентификатор : 1
Формат : AVC
Формат/Информация : Advanced Video Codec
Профиль формата : High@L4.1
Параметр CABAC формата : Да
Параметр ReFrames формата : 5 кадров
Идентификатор кодека : V_MPEG4/ISO/AVC
Продолжительность : 2 ч. 7 м.
Битрейт : 4463 Кбит/сек
Ширина : 1920 пикселей
Высота : 816 пикселей
Соотношение сторон : 2,35:1
Частота кадров : 23,976 кадра/сек
Цветовое пространство : YUV
Субдискретизация насыщенности : 4:2:0
Битовая глубина : 8 бит
Тип развёртки : Прогрессивная
Бит/(Пиксели*Кадры) : 0.119
Размер потока : 3,88 Гбайт (89%)
Библиотека кодирования : x264 core 122 r2184 5c85e0a
Настройки программы : cabac=1 / ref=5 / deblock=1:0:0 / analyse=0x3:0x133 / me=umh / subme=10 / psy=1 / psy_rd=1.00:0.10 / mixed_ref=1 / me_range=32 / chroma_me=1 / trellis=2 / 8x8dct=1 / cqm=0 / deadzone=21,11 / fast_pskip=0 / chroma_qp_offset=-3 / threads=6 / sliced_threads=0 / nr=0 / decimate=1 / interlaced=0 / bluray_compat=0 / constrained_intra=0 / bframes=6 / b_pyramid=2 / b_adapt=2 / b_bias=0 / direct=3 / weightb=1 / open_gop=0 / weightp=2 / keyint=240 / keyint_min=24 / scenecut=40 / intra_refresh=0 / rc_lookahead=60 / rc=2pass / mbtree=1 / bitrate=4463 / ratetol=1.0 / qcomp=0.62 / qpmin=0 / qpmax=69 / qpstep=4 / cplxblur=20.0 / qblur=0.5 / ip_ratio=1.40 / aq=1:1.00
Язык : Russian
Default : Да
Forced : Нет

Аудио
Идентификатор : 2
Формат : AC-3
Формат/Информация : Audio Coding 3
Расширение режима : CM (complete main)
Параметр Endianness формата : Big
Идентификатор кодека : A_AC3
Продолжительность : 2 ч. 7 м.
Вид битрейта : Постоянный
Битрейт : 448 Кбит/сек
Каналы : 6 каналов
Расположение каналов : Front: L C R, Side: L R, LFE
Частота : 48,0 КГц
Битовая глубина : 16 бит
Метод сжатия : С потерями
Размер потока : 408 Мбайт (9%)
Заголовок : Оригинал
Язык : Russian
Default : Да
Forced : Нет

Текст #1
Идентификатор : 3
Формат : UTF-8
Идентификатор кодека : S_TEXT/UTF8
Идентификатор кодека/Информация : UTF-8 Plain Text
Заголовок : UTF8 -167ms
Язык : German
Default : Да
Forced : Нет

Текст #2
Идентификатор : 4
Формат : UTF-8
Идентификатор кодека : S_TEXT/UTF8
Идентификатор кодека/Информация : UTF-8 Plain Text
Заголовок : w1251 -167ms
Язык : German
Default : Нет
Forced : Нет

Меню
00:00:00.000 : en:Chapter 1
00:20:44.660 : en:Chapter 2
00:25:56.721 : en:Chapter 3
00:36:21.262 : en:Chapter 4
00:46:49.473 : en:Chapter 5
00:56:48.780 : en:Chapter 6
01:04:05.216 : en:Chapter 7
01:14:49.276 : en:Chapter 8
01:17:27.893 : en:Chapter 9
01:24:16.593 : en:Chapter 10
01:44:15.123 : en:Chapter 11
01:50:47.223 : en:Chapter 12
02:07:16.545 : en:Chapter 13



   Похожие торренты   Торрент   Размер 
В этой теме нет новых непрочитанных сообщений. Тайна Чингис Хаана (2009) BDRip от HQCLUB

82 | 7

2.18 ГБ

В этой теме нет новых непрочитанных сообщений. Тайна Чингис Хаана (2009) BDRip-AVC от ExKinoRay

16 | 5

3.06 ГБ

В этой теме нет новых непрочитанных сообщений. Тайна Чингис Хаана (2009) BDRip от ExKinoRay

0 | 2

2.18 ГБ

В этой теме нет новых непрочитанных сообщений. Тайна Чингис Хаана / By the Will of Chingis Khan (2009) BDRip

5 | 4

2.18 ГБ

В этой теме нет новых непрочитанных сообщений. Тайна Чингис Хаана (2009) BDRip 720р - Brux

1 | 2

3.31 ГБ

В этой теме нет новых непрочитанных сообщений. Тайна Чингис Хаана (2009) Blu-Ray

0 | 3

22.39 ГБ

В этой теме нет новых непрочитанных сообщений. Тайна Чингис Хаана (2009) HDRip

6 | 4

1.37 ГБ




Вы не можете начинать темы
Вы не можете отвечать на сообщения
Вы не можете редактировать свои сообщения
Вы не можете удалять свои сообщения
Вы не можете добавлять вложения

Перейти:  
Для Мосгорсуда, Роскомнадзора и рекламодателей: mosgorsud-torrent[собачка]yandex.ru
 Вход
ppkBB3cker v.2 © 2008-2014 @ PPK
[ Time : 0.020s | 15 Queries | GZIP : On ]

Торрент трекер RUTOR.IN, Не можете зайти на rutor.org? Какой новый адрес рутор? Какое зеркало рутор? Не работает rutor.org и зеркала? Тогда наш торрент специально для вас. Rutor.in неофициальное зеркало rutor. В случае если у Вас заблокирован rutor или вдруг Вы не можете на него зайти, то Вы без труда сможете скачать бесплатно и без рекламы последние новинки кино, игр, сериалов и прочего у нас, на Rutor.in. Не нужно использовать прокси, чтобы зайти на рутор, достаточно воспользоваться нашим ресурсом. Все новые фильмы, игры, сериалы, книги и музыка за 2013 и 2014 годы через торрент бесплатно. Скачивайте фильмы в хорошем качестве, игры для пк, xbox, playstation без регистрации. У нас вы найдете новые Зарубежные сериалы и Русские сериалы 2013, 2014, 2015 годов. Оставайтесь с нами, качайте любимые фильмы, игры, сериалы, книги и музыку.