img image001 image001 image001 image001 image001 image001 image001 image001 image001 image001 image001 image001 image001 image001 image001

Planets Sun Sun Sun
Статистика раздачи
Автор: Снежана | Размер: 4.35 ГБ | Добавлен: 24 июл 2013
Раздают: 10    Качают: 3
Скачать торрент
Скачать торрент
Описание торрента

СообщениеДобавлено: 24 июл 2013 

#77


Описание

Название: Тот ещё Карлосон!
Год выхода: 2012
Жанр: фэнтези, комедия, семейный
Режиссер: Сарик Андреасян
В ролях: Михаил Галустян, Федя Смирнов, Олег Табаков, Нонна Гришаева, Игорь Верник, Мария Сёмкина, Гоша Куценко, Александр Олешко, Семен Фурман, Андрей Федорцов

О фильме

Герой Михаила Галустяна, прозванного в нашем мире за сходство КарлОсоном, живет в волшебном и красочном мире Метриков - пухлых большеухих летающих человечков метрового роста, миссия которых - помогать ребятишкам, которым взрослые, скорее, создают проблемы, нежели решают их. Метрики могут показываться детям, но вынуждены тщательно скрывать факт своего существования от скучных взрослых.

Наш герой - беззаботный, озорной, в меру эгоистичный сладкоежка, частенько сбегающий от соплеменников в мир людей, чтобы пошалить и порезвиться. Ведь в душе он сам еще ребенок - ему только-только исполнилось 300 лет.

Автор рипа mitrian



Дополнительно

Выпущено: Россия
Продолжительность: 01:23:50
Перевод: Не требуется

Качество: BDRip 1080p (исходник Blu-ray)
Видео: 1920х816, 7083 Кбит/сек, 24.000 кадр/сек, AVC, x264, 0.121 Бит/(Пиксели*Кадры)
Аудио: AC-3, 384 Кбит/сек, 6 канала(ов), 48,0 КГц
чаптеры: Есть
Размер: 4.37 Гб




Format : Matroska
Format version : Version 2
File size : 4.35 GiB
Duration : 1h 23mn
Overall bit rate : 7 435 Kbps
Movie name : Rip by mitrian (NOLIMITS-TEAM.RU)
Encoded date : UTC 2012-04-11 10:33:23
Writing application : mkvmerge v5.4.0 ('Piper') built on Mar 10 2012 13:34:39
Writing library : libebml v1.2.3 + libmatroska v1.3.0

Video
ID : 1
Format : AVC
Format/Info : Advanced Video Codec
Format profile : High@L4.1
Format settings, CABAC : Yes
Format settings, ReFrames : 5 frames
Codec ID : V_MPEG4/ISO/AVC
Duration : 1h 23mn
Bit rate : 7 083 Kbps
Width : 1 920 pixels
Height : 816 pixels
Display aspect ratio : 2.35:1
Frame rate : 24.000 fps
Color space : YUV
Chroma subsampling : 4:2:0
Bit depth : 8 bits
Scan type : Progressive
Bits/(Pixel*Frame) : 0.188
Stream size : 4.04 GiB (93%)
Title : Тот ещё Карлосон!.(2012).BDRip1080p.NOLIMITS-TEAM
Writing library : x264 core 122 r2183 c522ad1
Encoding settings : cabac=1 / ref=5 / deblock=1:-3:-2 / analyse=0x3:0x133 / me=umh / subme=10 / psy=1 / psy_rd=1.00:0.15 / mixed_ref=1 / me_range=32 / chroma_me=1 / trellis=2 / 8x8dct=1 / cqm=0 / deadzone=21,11 / fast_pskip=0 / chroma_qp_offset=-3 / threads=6 / sliced_threads=0 / slices=4 / nr=0 / decimate=0 / interlaced=0 / bluray_compat=0 / constrained_intra=0 / bframes=5 / b_pyramid=2 / b_adapt=2 / b_bias=0 / direct=3 / weightb=1 / open_gop=0 / weightp=2 / keyint=240 / keyint_min=24 / scenecut=40 / intra_refresh=0 / rc_lookahead=60 / rc=2pass / mbtree=1 / bitrate=7083 / ratetol=2.0 / qcomp=0.60 / qpmin=0 / qpmax=51 / qpstep=4 / cplxblur=20.0 / qblur=0.5 / ip_ratio=1.40 / aq=2:1.00
Language : English
Default : Yes
Forced : No

Audio
ID : 2
Format : AC-3
Format/Info : Audio Coding 3
Mode extension : CM (complete main)
Codec ID : A_AC3
Duration : 1h 23mn
Bit rate mode : Constant
Bit rate : 384 Kbps
Channel(s) : 6 channels
Channel positions : Front: L C R, Side: L R, LFE
Sampling rate : 48.0 KHz
Bit depth : 16 bits
Compression mode : Lossy
Stream size : 230 MiB (5%)
Title : Русский
Default : Yes
Forced : No

Menu
00:00:00.000 : en:00:00:00.000
00:06:41.625 : en:00:06:41.625
00:12:48.083 : en:00:12:48.083
00:22:27.417 : en:00:22:27.417
00:27:51.667 : en:00:27:51.667
00:34:14.500 : en:00:34:14.500
00:44:32.083 : en:00:44:32.083
00:50:52.417 : en:00:50:52.417
00:58:49.125 : en:00:58:49.125
01:04:37.583 : en:01:04:37.583
01:13:37.333 : en:01:13:37.333
01:18:27.708 : en:01:18:27.708




   Похожие торренты   Торрент   Размер 
В этой теме нет новых непрочитанных сообщений. Джунгли (2012) BDRip 1080p от NoLimits-Team

98 | 8

4.37 ГБ

В этой теме нет новых непрочитанных сообщений. Zолушка (2012) BDRip 1080p от NOLIMITS-TEAM

3 | 2

4.37 ГБ

В этой теме нет новых непрочитанных сообщений. Няньки (2012) BDRip 1080p от NOLIMITS-TEAM

21 | 6

4.37 ГБ

В этой теме нет новых непрочитанных сообщений. Самоубийцы (2012) BDRip 1080p от NOLIMITS-TEAM

7 | 4

4.36 ГБ

В этой теме нет новых непрочитанных сообщений. Лоракс / The Lorax (2012) BDRip 1080p от NoLimits-Team

53 | 5

7.96 ГБ

В этой теме нет новых непрочитанных сообщений. Слова / The Words (2012) BDRip 1080p от NoLimits-Team

13 | 3

7.95 ГБ

В этой теме нет новых непрочитанных сообщений. Хичкок / Hitchcock (2012) BDRip 1080p от NoLimits-Team

15 | 3

4.37 ГБ




Вы не можете начинать темы
Вы не можете отвечать на сообщения
Вы не можете редактировать свои сообщения
Вы не можете удалять свои сообщения
Вы не можете добавлять вложения

Перейти:  
Для Мосгорсуда, Роскомнадзора и рекламодателей: mosgorsud-torrent[собачка]yandex.ru
 Вход
ppkBB3cker v.2 © 2008-2014 @ PPK
[ Time : 0.055s | 15 Queries | GZIP : Off ]

Торрент трекер RUTOR.IN, Не можете зайти на rutor.org? Какой новый адрес рутор? Какое зеркало рутор? Не работает rutor.org и зеркала? Тогда наш торрент специально для вас. Rutor.in неофициальное зеркало rutor. В случае если у Вас заблокирован rutor или вдруг Вы не можете на него зайти, то Вы без труда сможете скачать бесплатно и без рекламы последние новинки кино, игр, сериалов и прочего у нас, на Rutor.in. Не нужно использовать прокси, чтобы зайти на рутор, достаточно воспользоваться нашим ресурсом. Все новые фильмы, игры, сериалы, книги и музыка за 2013 и 2014 годы через торрент бесплатно. Скачивайте фильмы в хорошем качестве, игры для пк, xbox, playstation без регистрации. У нас вы найдете новые Зарубежные сериалы и Русские сериалы 2013, 2014, 2015 годов. Оставайтесь с нами, качайте любимые фильмы, игры, сериалы, книги и музыку.