img image001 image001 image001 image001 image001 image001 image001 image001 image001 image001 image001 image001 image001 image001 image001

Planets Sun Sun Sun
Статистика раздачи
Автор: Снежана | Размер: 4.41 ГБ | Добавлен: 24 июл 2013
Раздают: 1    Качают: 2
Скачать торрент
Скачать торрент
Описание торрента

СообщениеДобавлено: 24 июл 2013 

#77

Год выпуска: 2012
Страна: Россия
Жанр: комедия
Продолжительность: 01:29:13
Перевод: Не требуется. Лицензия
Субтитры: нет


Режиссер: Егор Баранов

В ролях: Евгений Стычкин, Алексей Воробьев, Оксана Акиньшина, Гоша Куценко, Вилле Хаапасало, Марат Башаров, Михаил Полицеймако, Александр Стриженов, Евгений Рахманько, Даниил Меркулов



Описание: Комедия о головокружительных приключениях трех друзей — Алексея, Толика и Марины, которые решили свести счеты с жизнью. Собрав вокруг себя неприкаянных единомышленников, новые друзья решают напоследок исполнить по последнему желанию друг друга. Это, на первый взгляд, безобидное решение превращает жизнь героев в непрерывный калейдоскоп феерических событий. Чем активнее друзья исполняют самые неожиданные желания друг друга, тем невероятнее истории, в которые они попадают.



Качество: BDRip (720p)
Формат: MKV
Видео кодек: AVC
Аудио кодек: AC3
Видео: AVC, 1280x544 (2.35), 25.000 fps, 6 298 Kbps (0.362 bit/pixel)
Аудио: AC3, 6 ch., 48 kHz, ~448.00 kbps







General
Unique ID : 172750254756149645741684197737121539666 (0x81F67D25816B724A82760A6847D56652)
Complete name : E:mkvSAMOUBIICI_BD_BLUEBIRDSAMOUBIICI_BD_BLUEBIRD.mkv
Format : Matroska
Format version : Version 2
File size : 4.41 GiB
Duration : 1h 29mn
Overall bit rate : 7 079 Kbps
Movie name : SAMOUBIICI_BD_BLUEBIRD.Title8.BlurayRip
Encoded date : UTC 2012-04-11 10:53:04
Writing application : DVDFab
Writing library : libebml v0.7.8 + libmatroska v0.8.1

Video
ID : 1
Format : AVC
Format/Info : Advanced Video Codec
Format profile : High@L5.1
Format settings, CABAC : Yes
Format settings, ReFrames : 2 frames
Codec ID : V_MPEG4/ISO/AVC
Duration : 1h 29mn
Bit rate : 6 298 Kbps
Width : 1 280 pixels
Height : 544 pixels
Display aspect ratio : 2.35:1
Frame rate : 25.000 fps
Color space : YUV
Chroma subsampling : 4:2:0
Bit depth : 8 bits
Scan type : Progressive
Bits/(Pixel*Frame) : 0.362
Stream size : 3.92 GiB (89%)
Writing library : x264 core
Default : Yes
Forced : No
Color primaries : BT.709-5, BT.1361, IEC 61966-2-4, SMPTE RP177
Transfer characteristics : BT.709-5, BT.1361
Matrix coefficients : BT.709-5, BT.1361, IEC 61966-2-4 709, SMPTE RP177

Audio
ID : 2
Format : AC-3
Format/Info : Audio Coding 3
Mode extension : CM (complete main)
Codec ID : A_AC3
Duration : 1h 29mn
Bit rate mode : Constant
Bit rate : 640 Kbps
Channel(s) : 6 channels
Channel positions : Front: L C R, Side: L R, LFE
Sampling rate : 48.0 KHz
Bit depth : 16 bits
Compression mode : Lossy
Stream size : 408 MiB (9%)
Language : Russian
Default : Yes
Forced : No

Menu
00:00:00.000 : en:(01)00:00:00:000
00:01:40.720 : en:(02)00:01:40:720
00:08:03.280 : en:(03)00:08:03:280
00:21:37.360 : en:(04)00:21:37:360
00:30:47.440 : en:(05)00:30:47:440
00:40:09.520 : en:(06)00:40:09:520
00:51:03.280 : en:(07)00:51:03:280
01:03:37.840 : en:(08)01:03:37:840
01:14:58.960 : en:(09)01:14:58:960











   Похожие торренты   Торрент   Размер 
В этой теме нет новых непрочитанных сообщений. Самоубийцы (2012) BDRip-AVC от R.G. AVI | AVC | Лицензия

7 | 4

1.46 ГБ

В этой теме нет новых непрочитанных сообщений. Самоубийцы (2012) BDRip от HQCLUB | Лицензия

90 | 16

1.45 ГБ

В этой теме нет новых непрочитанных сообщений. Самоубийцы (2012) BDRip 720p от NOLIMITS-TEAM

8 | 2

2.2 ГБ

В этой теме нет новых непрочитанных сообщений. Самоубийцы (2012) BDRip 720p от leonardo 59 | AppleTV / iPad

6 | 3

2.28 ГБ

В этой теме нет новых непрочитанных сообщений. Самоубийцы (2012) Blu-Ray | Лицензия

1 | 2

19.86 ГБ

В этой теме нет новых непрочитанных сообщений. Самоубийцы (2012) DVD5 | Лицензия

6 | 2

4.36 ГБ

В этой теме нет новых непрочитанных сообщений. Самоубийцы (2012) HDRip | Лицензия

1 | 2

700.96 МБ




Вы не можете начинать темы
Вы не можете отвечать на сообщения
Вы не можете редактировать свои сообщения
Вы не можете удалять свои сообщения
Вы не можете добавлять вложения

Перейти:  
Для Мосгорсуда, Роскомнадзора и рекламодателей: mosgorsud-torrent[собачка]yandex.ru
 Вход
ppkBB3cker v.2 © 2008-2014 @ PPK
[ Time : 0.022s | 14 Queries | GZIP : Off ]

Торрент трекер RUTOR.IN, Не можете зайти на rutor.org? Какой новый адрес рутор? Какое зеркало рутор? Не работает rutor.org и зеркала? Тогда наш торрент специально для вас. Rutor.in неофициальное зеркало rutor. В случае если у Вас заблокирован rutor или вдруг Вы не можете на него зайти, то Вы без труда сможете скачать бесплатно и без рекламы последние новинки кино, игр, сериалов и прочего у нас, на Rutor.in. Не нужно использовать прокси, чтобы зайти на рутор, достаточно воспользоваться нашим ресурсом. Все новые фильмы, игры, сериалы, книги и музыка за 2013 и 2014 годы через торрент бесплатно. Скачивайте фильмы в хорошем качестве, игры для пк, xbox, playstation без регистрации. У нас вы найдете новые Зарубежные сериалы и Русские сериалы 2013, 2014, 2015 годов. Оставайтесь с нами, качайте любимые фильмы, игры, сериалы, книги и музыку.