img image001 image001 image001 image001 image001 image001 image001 image001 image001 image001 image001 image001 image001 image001 image001

Planets Sun Sun Sun
Статистика раздачи
Автор: Снежана | Размер: 4.28 ГБ | Добавлен: 24 июл 2013
Раздают: 1    Качают: 5
Скачать торрент
Скачать торрент
Описание торрента

СообщениеДобавлено: 24 июл 2013 

#77

Год выпуска: 2012
Страна: Россия
Жанр: Мелодрама, комедия.
Продолжительность: 01:27:40
Тип релиза: Лицензия

Режиссер: Сергей Иванов
Продюссер: Александр Цекало, Руслан Сорокин
Сценарий: Дмитрий Зверьков, Максим Туханин, Руслан Сорокин.

В ролях: Кристина Асмус, Никита Ефремов, Артем Ткаченко, Елизавета Боярская, Нонна Гришаева, Александр Цекало, Юрий Стоянов, Сергей Бурунов, Анна Шерлинг, Маргарита Бычкова

Описание: Героиня фильма, Маша Крапивина, — пока еще не красавица, и не то чтобы сказочная умница. Обычная девушка, рискнувшая, подобно тысячам ее сверстниц из самых разных уголков страны, покорить Москву, покинув свой родной провинциальный городок. Вечером учится, а с утра до вечера работает «на вредном производстве» — горничной в очень состоятельной семье. Крупу, конечно, не перебирает, но работы хватает: только успевай крутиться, чтобы угодить властной хозяйке и двум ее взбалмошным дочерям.

Качество: BDRip (720p)
Формат: MKV
Видео кодек: DivX
Видео: AVC, 1280x692 (1.850), 25.000 fps, 6 219 Kbps (0.281 bit/pixel)
Аудио#1: AC-3, 48.0 KHz, 6 ch, 640 Kbps, CBR (Russian)





General
Unique ID : 172192767853878992056808713942607543907 (0x818B1EEB8C2CEAD18308901C09E73E63)
Complete name : E:mkvZolushka.2011.MPEG-2.Blu-Ray.(1080i)Zolushka.mkv
Format : Matroska
Format version : Version 2
File size : 4.28 GiB
Duration : 1h 27mn
Overall bit rate : 6 998 Kbps
Movie name : Zolushka.2011.MPEG-2.Blu-Ray.(1080i).Title21.BlurayRip
Encoded date : UTC 2012-04-11 11:58:35
Writing application : DVDFab
Writing library : libebml v0.7.8 + libmatroska v0.8.1

Video
ID : 1
Format : AVC
Format/Info : Advanced Video Codec
Format profile : High@L5.1
Format settings, CABAC : Yes
Format settings, ReFrames : 2 frames
Codec ID : V_MPEG4/ISO/AVC
Duration : 1h 27mn
Bit rate : 6 219 Kbps
Width : 1 280 pixels
Height : 692 pixels
Display aspect ratio : 1.850
Frame rate : 25.000 fps
Color space : YUV
Chroma subsampling : 4:2:0
Bit depth : 8 bits
Scan type : Progressive
Bits/(Pixel*Frame) : 0.281
Stream size : 3.81 GiB (89%)
Writing library : x264 core
Default : Yes
Forced : No
Color primaries : BT.709-5, BT.1361, IEC 61966-2-4, SMPTE RP177
Transfer characteristics : BT.709-5, BT.1361
Matrix coefficients : BT.709-5, BT.1361, IEC 61966-2-4 709, SMPTE RP177

Audio
ID : 2
Format : AC-3
Format/Info : Audio Coding 3
Mode extension : CM (complete main)
Codec ID : A_AC3
Duration : 1h 27mn
Bit rate mode : Constant
Bit rate : 640 Kbps
Channel(s) : 6 channels
Channel positions : Front: L C R, Side: L R, LFE
Sampling rate : 48.0 KHz
Bit depth : 16 bits
Compression mode : Lossy
Stream size : 401 MiB (9%)
Language : Russian
Default : Yes
Forced : No

Menu
00:00:00.000 : en:(01)00:00:00:000
00:04:06.080 : en:(02)00:04:06:080
00:14:49.440 : en:(03)00:14:49:440
00:26:15.440 : en:(04)00:26:15:440
00:37:19.920 : en:(05)00:37:19:920
00:53:20.560 : en:(06)00:53:20:560
01:05:11.880 : en:(07)01:05:11:880
01:16:17.520 : en:(08)01:16:17:520
01:24:51.640 : en:(09)01:24:51:640








   Похожие торренты   Торрент   Размер 
В этой теме нет новых непрочитанных сообщений. Zолушка (2012) BDRip-AVC от R.G. AVI | AVC | Лицензия

2 | 2

1.46 ГБ

В этой теме нет новых непрочитанных сообщений. Zолушка (2012) BDRip 1080p | Лицензия

216 | 11

8.95 ГБ

В этой теме нет новых непрочитанных сообщений. Zолушка (2012) BDRip от HQCLUB | Лицензия

36 | 4

1.45 ГБ

В этой теме нет новых непрочитанных сообщений. Zолушка (2012) BDRip 720p от NOLIMITS-TEAM

2 | 3

2.19 ГБ

В этой теме нет новых непрочитанных сообщений. Zолушка (2012) Blu-Ray | Лицензия

1 | 4

18.88 ГБ

В этой теме нет новых непрочитанных сообщений. Zолушка (2012) DVD9 | Лицензия

6 | 6

4.8 ГБ

В этой теме нет новых непрочитанных сообщений. Zолушка (2012) HDRip от Scarabey | Лицензия

13 | 4

742.04 МБ




Вы не можете начинать темы
Вы не можете отвечать на сообщения
Вы не можете редактировать свои сообщения
Вы не можете удалять свои сообщения
Вы не можете добавлять вложения

Перейти:  
Для Мосгорсуда, Роскомнадзора и рекламодателей: mosgorsud-torrent[собачка]yandex.ru
 Вход
ppkBB3cker v.2 © 2008-2014 @ PPK
[ Time : 0.051s | 14 Queries | GZIP : Off ]

Торрент трекер RUTOR.IN, Не можете зайти на rutor.org? Какой новый адрес рутор? Какое зеркало рутор? Не работает rutor.org и зеркала? Тогда наш торрент специально для вас. Rutor.in неофициальное зеркало rutor. В случае если у Вас заблокирован rutor или вдруг Вы не можете на него зайти, то Вы без труда сможете скачать бесплатно и без рекламы последние новинки кино, игр, сериалов и прочего у нас, на Rutor.in. Не нужно использовать прокси, чтобы зайти на рутор, достаточно воспользоваться нашим ресурсом. Все новые фильмы, игры, сериалы, книги и музыка за 2013 и 2014 годы через торрент бесплатно. Скачивайте фильмы в хорошем качестве, игры для пк, xbox, playstation без регистрации. У нас вы найдете новые Зарубежные сериалы и Русские сериалы 2013, 2014, 2015 годов. Оставайтесь с нами, качайте любимые фильмы, игры, сериалы, книги и музыку.