img image001 image001 image001 image001 image001 image001 image001 image001 image001 image001 image001 image001 image001 image001 image001

Planets Sun Sun Sun
Статистика раздачи
Автор: Снежана | Размер: 1.37 ГБ | Добавлен: 24 июл 2013
Раздают: 306    Качают: 8
Скачать торрент
Скачать торрент
Описание торрента

СообщениеДобавлено: 24 июл 2013 

#77

Информация о фильме
Название: Весёлые истории
Год выпуска: 1962
Жанр: Детский, семейный
Режиссер: Вениамин Дорман
В ролях: Михаил Кисляров, Александр Кекиш, Надя Фоминцина, Лена Дружинина, Тамара Логинова, Георгий Тусузов, Вадим Захарченко, Юрий Медведев, Сергей Мартинсон, Николай Гринько, Олег Анофриев, Павел Волков, Евгений Кудряшов, Гарри Дунц, Анатолий Кубацкий, Эмма Трейвас

Описание:

Герои фильма - фантазер и поэт Дениска Кораблев, озорной Мишка, мечтательная Леночка и чрезмерно любопытная Аленка - живут в обыкновенном московском дворе. Они, как и все дети, любят цирк и зоопарк, но не любят манную кашу и домоуправа, который вечно следит за ними и мешает исполнять во дворе всевозможные цирковые номера...



Страна: СССР
Продолжительность: 01:23:26
Перевод: Не требуется

Файл
Качество: DVDRip
Формат: AVI
Видео кодек: XviD
Аудио кодек: AC3
Видео: 720x544 (1.32:1), 25 fps, XviD build 47 ~2157 kbps avg, 0.22 bit/pixel
Аудио: 48 kHz, AC3 Dolby Digital, 2/0 (L,R) ch, ~192.00 kbps avg[/i]

Общее
Полное имя : G:СказкиВеселые истории.1962.XviD.DVDRip.avi
Формат : AVI
Формат/Информация : Audio Video Interleave
Размер файла : 1,37 Гбайт
Продолжительность : 1 ч. 23 м.
Общий поток : 2359 Кбит/сек
Программа кодирования : VirtualDubModRus 1.5.10.2 (build 2540/release)
Библиотека кодирования : VirtualDubMod build 2540/release

Видео
Идентификатор : 0
Формат : MPEG-4 Visual
Профиль формата : Advanced Simple@L5
Параметр BVOP формата : 1
Параметр QPel формата : Нет
Параметр GMC формата : Без точки перехода
Параметр матрицы формата : Выборочная
Идентификатор кодека : XVID
Идентификатор кодека/Подсказка : XviD
Продолжительность : 1 ч. 23 м.
Битрейт : 2157 Кбит/сек
Ширина : 720 пикс.
Высота : 544 пикс.
Соотношение сторон : 4:3
Частота кадров : 25,000 кадр/сек
Цветовое пространство : YUV
Подвыборка цветности : 4:2:0
Битовая глубина : 8 бит
Тип развёртки : Прогрессивная
Метод сжатия : С потерями
Бит/(Пиксели*Кадры) : 0.220
Размер потока : 1,26 Гбайт (91%)
Библиотека кодирования : XviD 1.2.0.dev47 (UTC 2006-11-01)

Аудио
Идентификатор : 1
Формат : AC-3
Формат/Информация : Audio Coding 3
Расширение режима : CM (complete main)
Идентификатор кодека : 2000
Продолжительность : 1 ч. 23 м.
Вид битрейта : Постоянный
Битрейт : 192 Кбит/сек
Канал(ы) : 2 канала(ов)
Расположение каналов : Front: L R
Частота : 48,0 КГц
Битовая глубина : 16 бит
Метод сжатия : С потерями
Размер потока : 115 Мбайт (8%)
Выравнивание : Разделение по промежуткам
Продолжительность промежутка : 40 мс. (1,00 видеокадр)
Время предзагрузки промежутка : 500 ms
Язык : English

[









   Похожие торренты   Торрент   Размер 
В этой теме нет новых непрочитанных сообщений. Веселые истории / Art stories (2010) PC

1 | 4

242.85 МБ

В этой теме нет новых непрочитанных сообщений. Веселые истории из жизни [01-17] (2013) SATRip

2 | 2

4.52 ГБ

В этой теме нет новых непрочитанных сообщений. Игорь Бутман - Веселые истории (2007) МР3 от BestSound ExKinoRay

135 | 12

169.01 МБ

В этой теме нет новых непрочитанных сообщений. Продолжение истории Затойчи / The Tale Of Zatoichi Continues / Zoku Zatôichi monogatari (1962) HDRip от Assassin's Creed | L1

27 | 8

746.39 МБ

В этой теме нет новых непрочитанных сообщений. Запретные темы истории. Пробелы в древней истории Страны восходящего солнца (2013) DVDRip-AVC от -=HD-NET=-

53 | 10

911.98 МБ

В этой теме нет новых непрочитанных сообщений. Веселые ребята (1934) DVDRip от RG.Mega Best

168 | 11

1.23 ГБ

В этой теме нет новых непрочитанных сообщений. Истории квартала / Истории из морга / Tales from the Hood (1995) HDRip от Koenig

36 | 0

1.45 ГБ




Вы не можете начинать темы
Вы не можете отвечать на сообщения
Вы не можете редактировать свои сообщения
Вы не можете удалять свои сообщения
Вы не можете добавлять вложения

Перейти:  
Для Мосгорсуда, Роскомнадзора и рекламодателей: mosgorsud-torrent[собачка]yandex.ru
 Вход
ppkBB3cker v.2 © 2008-2014 @ PPK
[ Time : 0.038s | 15 Queries | GZIP : Off ]

Торрент трекер RUTOR.IN, Не можете зайти на rutor.org? Какой новый адрес рутор? Какое зеркало рутор? Не работает rutor.org и зеркала? Тогда наш торрент специально для вас. Rutor.in неофициальное зеркало rutor. В случае если у Вас заблокирован rutor или вдруг Вы не можете на него зайти, то Вы без труда сможете скачать бесплатно и без рекламы последние новинки кино, игр, сериалов и прочего у нас, на Rutor.in. Не нужно использовать прокси, чтобы зайти на рутор, достаточно воспользоваться нашим ресурсом. Все новые фильмы, игры, сериалы, книги и музыка за 2013 и 2014 годы через торрент бесплатно. Скачивайте фильмы в хорошем качестве, игры для пк, xbox, playstation без регистрации. У нас вы найдете новые Зарубежные сериалы и Русские сериалы 2013, 2014, 2015 годов. Оставайтесь с нами, качайте любимые фильмы, игры, сериалы, книги и музыку.