img image001 image001 image001 image001 image001 image001 image001 image001 image001 image001 image001 image001 image001 image001 image001

Planets Sun Sun Sun
Статистика раздачи
Автор: Снежана | Размер: 4.36 ГБ | Добавлен: 24 июл 2013
Раздают: 7    Качают: 4
Скачать торрент
Скачать торрент
Описание торрента

СообщениеДобавлено: 24 июл 2013 

#77



Самоубийцы (2012) BDRip 1080p от NOLIMITS-TEAM


- Информация о фильме:

Оригинальное название: Самоубийцы
Год выхода: 2012
Жанр: комедия
Режиссер: Егор Баранов
В ролях: Евгений Стычкин, Алексей Воробьев, Оксана Акиньшина, Гоша Куценко, Вилле Хаапасало, Марат Башаров, Михаил Полицеймако, Александр Стриженов, Евгений Рахманько, Даниил Меркулов
- О фильме:
Комедия о головокружительных приключениях трех друзей - Алексея, Толика и Марины, которые решили свести счеты с жизнью. Собрав вокруг себя неприкаянных единомышленников, новые друзья решают напоследок исполнить по последнему желанию друг друга. Это, на первый взгляд, безобидное решение превращает жизнь героев в непрерывный калейдоскоп феерических событий. Чем активнее друзья исполняют самые неожиданные желания друг друга, тем невероятнее истории, в которые они попадают.

Продолжительность: 01:29:13
Перевод: Оригинал
Субтитры: Отсутствуют
Выпущено: Россия



- Файл:
Качество: BDRip 1080p (исходник Blu-ray)
Видео: 1920x816, 6625 Кбит/сек, 25,000 кадр/сек, AVC, x264, 2.35:1 , 0.169 Бит/(Пиксели*Кадры)
Аудио: AC-3, 384 Кбит/сек, 6 канала(ов), 48,0 КГц
Контейнер: MKV
Размер: 4,37 Гб





Релиз Группа | Автор Рипа: | kozak
General
Unique ID : 207207038646187738235194743146129497791 (0x9BE29FC1318C739ABB6F60440C899EBF)
Complete name : J:СамоубийцыСамоубийцы - 1080pСамоубийцы(2012).BDrip.1080p.NOLIMITS-TEAM.mkv
Format : Matroska
Format version : Version 2
File size : 4.36 GiB
Duration : 1h 29mn
Overall bit rate : 6 998 Kbps
Movie name : Rip by kozak (NOLIMITS-TEAM.RU)
Encoded date : UTC 2012-04-12 21:37:05
Writing application : mkvmerge v5.5.0 ('Healer') built on Apr 6 2012 21:43:24
Writing library : libebml v1.2.3 + libmatroska v1.3.0

Video
ID : 1
Format : AVC
Format/Info : Advanced Video Codec
Format profile : High@L4.1
Format settings, CABAC : Yes
Format settings, ReFrames : 5 frames
Codec ID : V_MPEG4/ISO/AVC
Duration : 1h 29mn
Bit rate : 6 625 Kbps
Width : 1 920 pixels
Height : 816 pixels
Display aspect ratio : 2.35:1
Frame rate : 25.000 fps
Color space : YUV
Chroma subsampling : 4:2:0
Bit depth : 8 bits
Scan type : Progressive
Bits/(Pixel*Frame) : 0.169
Stream size : 4.03 GiB (93%)
Title : Самоубийцы(2012).BDrip.1080p.NOLIMITS-TEAM
Writing library : x264 core 122 r2184 5c85e0a
Encoding settings : cabac=1 / ref=5 / deblock=1:-3:-2 / analyse=0x3:0x133 / me=umh / subme=11 / psy=1 / psy_rd=1.00:0.15 / mixed_ref=1 / me_range=32 / chroma_me=1 / trellis=2 / 8x8dct=1 / cqm=0 / deadzone=21,11 / fast_pskip=0 / chroma_qp_offset=-3 / threads=12 / sliced_threads=0 / slices=4 / nr=0 / decimate=0 / interlaced=0 / bluray_compat=0 / constrained_intra=0 / bframes=5 / b_pyramid=2 / b_adapt=2 / b_bias=0 / direct=3 / weightb=1 / open_gop=0 / weightp=2 / keyint=240 / keyint_min=24 / scenecut=40 / intra_refresh=0 / rc_lookahead=60 / rc=2pass / mbtree=1 / bitrate=6625 / ratetol=2.0 / qcomp=0.60 / qpmin=0 / qpmax=51 / qpstep=4 / cplxblur=20.0 / qblur=0.5 / ip_ratio=1.40 / aq=2:1.00
Language : English
Default : Yes
Forced : No

Audio
ID : 2
Format : AC-3
Format/Info : Audio Coding 3
Mode extension : CM (complete main)
Codec ID : A_AC3
Duration : 1h 29mn
Bit rate mode : Constant
Bit rate : 384 Kbps
Channel(s) : 6 channels
Channel positions : Front: L C R, Side: L R, LFE
Sampling rate : 48.0 KHz
Bit depth : 16 bits
Compression mode : Lossy
Stream size : 245 MiB (5%)
Title : Оригинал
Language : Russian
Default : Yes
Forced : No

Menu
00:00:00.000 : en:00:00:00.000
00:01:40.720 : en:00:01:40.720
00:08:03.280 : en:00:08:03.280
00:21:37.360 : en:00:21:37.360
00:30:47.440 : en:00:30:47.440
00:40:09.520 : en:00:40:09.520
00:51:03.280 : en:00:51:03.280
01:03:37.840 : en:01:03:37.840
01:14:58.960 : en:01:14:58.960








Уважаемые пользователи, не нужно заказывать фильмы в комментариях. Хотите заказать релиз - воспользуйтесь Столом Заказов на самом сайте Релиз-Группы.
С уважением, Администрация сайта NoLimits-Team



   Похожие торренты   Торрент   Размер 
В этой теме нет новых непрочитанных сообщений. Самоубийцы (2012) BDRip 720p от NOLIMITS-TEAM

8 | 2

2.2 ГБ

В этой теме нет новых непрочитанных сообщений. Тот ещё Карлосон! (2012) BDRip 1080p от NOLIMITS-TEAM

10 | 3

4.35 ГБ

В этой теме нет новых непрочитанных сообщений. Няньки (2012) BDRip 1080p от NOLIMITS-TEAM

21 | 6

4.37 ГБ

В этой теме нет новых непрочитанных сообщений. Zолушка (2012) BDRip 1080p от NOLIMITS-TEAM

3 | 2

4.37 ГБ

В этой теме нет новых непрочитанных сообщений. Джунгли (2012) BDRip 1080p от NoLimits-Team

98 | 8

4.37 ГБ

В этой теме нет новых непрочитанных сообщений. Хичкок / Hitchcock (2012) BDRip 1080p от NoLimits-Team

15 | 3

4.37 ГБ

В этой теме нет новых непрочитанных сообщений. Лоракс / The Lorax (2012) BDRip 1080p от NoLimits-Team

53 | 5

7.96 ГБ




Вы не можете начинать темы
Вы не можете отвечать на сообщения
Вы не можете редактировать свои сообщения
Вы не можете удалять свои сообщения
Вы не можете добавлять вложения

Перейти:  
Для Мосгорсуда, Роскомнадзора и рекламодателей: mosgorsud-torrent[собачка]yandex.ru
 Вход
ppkBB3cker v.2 © 2008-2014 @ PPK
[ Time : 0.697s | 15 Queries | GZIP : On ]

Торрент трекер RUTOR.IN, Не можете зайти на rutor.org? Какой новый адрес рутор? Какое зеркало рутор? Не работает rutor.org и зеркала? Тогда наш торрент специально для вас. Rutor.in неофициальное зеркало rutor. В случае если у Вас заблокирован rutor или вдруг Вы не можете на него зайти, то Вы без труда сможете скачать бесплатно и без рекламы последние новинки кино, игр, сериалов и прочего у нас, на Rutor.in. Не нужно использовать прокси, чтобы зайти на рутор, достаточно воспользоваться нашим ресурсом. Все новые фильмы, игры, сериалы, книги и музыка за 2013 и 2014 годы через торрент бесплатно. Скачивайте фильмы в хорошем качестве, игры для пк, xbox, playstation без регистрации. У нас вы найдете новые Зарубежные сериалы и Русские сериалы 2013, 2014, 2015 годов. Оставайтесь с нами, качайте любимые фильмы, игры, сериалы, книги и музыку.
cron