img image001 image001 image001 image001 image001 image001 image001 image001 image001 image001 image001 image001 image001 image001 image001

Planets Sun Sun Sun
Статистика раздачи
Автор: Снежана | Размер: 4.37 ГБ | Добавлен: 24 июл 2013
Раздают: 673    Качают: 4
Скачать торрент
Скачать торрент
Описание торрента

СообщениеДобавлено: 24 июл 2013 

#77

Информация о фильме
Название: В ожидании чуда
Год выхода: 2007
Жанр: мелодрама, комедия
Режиссер: Евгений Бедарев
В ролях: Екатерина Копанова, Владимир Крылов, Нина Русланова, Татьяна Васильева, Олеся Судзиловская, Михаил Химичев, Станислав Бондаренко, Лилия Кондрова, Антон Макарский, Владимир Долинский

О фильме: История молодой девушки, верящей в чудеса. Парни на нее не обращают никакого внимания, на работе крадут и пользуются ее идеями, друзья считают ее немного странной, но юная девушка не унывает и продолжает верить в принца на белом коне. И однажды он появляется.

Красивый, молодой, ему подвластно волшебство, а отныне и ее чувства. Как теперь не поверить в сказку, когда сама в ней оказалась?… Долгожданный принц сделает ее жизнь поистине волшебной.



Выпущено: Monumental Pictures
Продолжительность: 01:36:55
Перевод: Оригинал

Файл
Кодек: x264
Качество: BDRip (источник: Blu-ray Disc)
Видео: 1920x848 (2,25:1), 23.976 fps, 6000 kbps
Звук: 48 kHz, AC-3, 6 ch, 448 kbps
Субтитры: Английские
Скачать: сэмпл

Скриншоты

Общее
Уникальный идентификатор : 239586328557986688545959990091631816745 (0xB43EA60065B660718DE792DD7B7FF029)
Полное имя : V.ozhidanii.chuda.2007.BDRip.1080p.Rus.mkv
Формат : Matroska
Версия формата : Version 2
Размер файла : 4,37 Гбайт
Продолжительность : 1 ч. 36 м.
Общий поток : 6449 Кбит/сек
Название фильма : В ожидании чуда (2007)
Дата кодирования : UTC 2012-04-15 02:40:28
Программа кодирования : mkvmerge v4.0.0 ('The Stars were mine') сборка от Jun 6 2010 16:18:42
Библиотека кодирования : libebml v1.0.0 + libmatroska v1.0.0

Видео
Идентификатор : 1
Формат : AVC
Формат/Информация : Advanced Video Codec
Профиль формата : High@L4.1
Параметр CABAC формата : Да
Параметр ReFrames формата : 5 кадров
Идентификатор кодека : V_MPEG4/ISO/AVC
Продолжительность : 1 ч. 36 м.
Битрейт : 6000 Кбит/сек
Ширина : 1920 пикселей
Высота : 848 пикселей
Соотношение сторон : 2,25:1
Частота кадров : 23,976 кадра/сек
Цветовое пространство : YUV
Субдискретизация насыщенности : 4:2:0
Битовая глубина : 8 бит
Тип развёртки : Прогрессивная
Бит/(Пиксели*Кадры) : 0.154
Размер потока : 3,98 Гбайт (91%)
Заголовок : Release by AlexKa
Библиотека кодирования : x264 core 122 r2184 5c85e0a
Настройки программы : cabac=1 / ref=5 / deblock=1:0:0 / analyse=0x3:0x133 / me=umh / subme=10 / psy=1 / psy_rd=1.00:0.10 / mixed_ref=1 / me_range=32 / chroma_me=1 / trellis=2 / 8x8dct=1 / cqm=0 / deadzone=21,11 / fast_pskip=0 / chroma_qp_offset=-3 / threads=12 / sliced_threads=0 / nr=0 / decimate=0 / interlaced=0 / bluray_compat=0 / constrained_intra=0 / bframes=5 / b_pyramid=2 / b_adapt=2 / b_bias=0 / direct=3 / weightb=1 / open_gop=0 / weightp=2 / keyint=240 / keyint_min=23 / scenecut=40 / intra_refresh=0 / rc_lookahead=60 / rc=2pass / mbtree=1 / bitrate=6000 / ratetol=1.0 / qcomp=0.60 / qpmin=0 / qpmax=69 / qpstep=4 / cplxblur=20.0 / qblur=0.5 / ip_ratio=1.40 / aq=1:1.00
Язык : Russian

Аудио
Идентификатор : 2
Формат : AC-3
Формат/Информация : Audio Coding 3
Расширение режима : CM (complete main)
Идентификатор кодека : A_AC3
Продолжительность : 1 ч. 36 м.
Вид битрейта : Постоянный
Битрейт : 448 Кбит/сек
Каналы : 6 каналов
Расположение каналов : Front: L C R, Side: L R, LFE
Частота : 48,0 КГц
Битовая глубина : 16 бит
Метод сжатия : С потерями
Размер потока : 311 Мбайт (7%)
Заголовок : Rus
Язык : Russian

Текст
Идентификатор : 3
Формат : UTF-8
Идентификатор кодека : S_TEXT/UTF8
Идентификатор кодека/Информация : UTF-8 Plain Text
Заголовок : Eng
Язык : English

Меню
00:00:00.000 : :Chapter 01
00:08:31.260 : :Chapter 02
00:15:21.503 : :Chapter 03
00:23:00.504 : :Chapter 04
00:30:59.482 : :Chapter 05
00:40:17.748 : :Chapter 06
00:50:04.167 : :Chapter 07
01:00:06.894 : :Chapter 08
01:06:31.487 : :Chapter 09
01:14:18.412 : :Chapter 10
01:22:18.350 : :Chapter 11
01:31:56.177 : :Chapter 12



   Похожие торренты   Торрент   Размер 
В этой теме нет новых непрочитанных сообщений. В ожидании чуда (2007) BDRip AVC от Киномагия

57 | 7

1.45 ГБ

В этой теме нет новых непрочитанных сообщений. В ожидании чуда (2007) BDRip 720p

0 | 3

4 ГБ

В этой теме нет новых непрочитанных сообщений. В ожидании чуда (2007) BDRip от HQ-ViDEO

520 | 83

1.46 ГБ

В этой теме нет новых непрочитанных сообщений. В ожидании чуда (2007) BDRip от HQCLUB

54 | 10

1.46 ГБ

В этой теме нет новых непрочитанных сообщений. В ожидании чуда (2007) BDRemux

1 | 2

17.9 ГБ

В этой теме нет новых непрочитанных сообщений. В ожидании чуда (2007) HDRip от Scarabey

17 | 2

744.62 МБ

В этой теме нет новых непрочитанных сообщений. В ожидании чуда (2007) HDRip от Scarabey

138 | 10

1.45 ГБ




Вы не можете начинать темы
Вы не можете отвечать на сообщения
Вы не можете редактировать свои сообщения
Вы не можете удалять свои сообщения
Вы не можете добавлять вложения

Перейти:  
Для Мосгорсуда, Роскомнадзора и рекламодателей: mosgorsud-torrent[собачка]yandex.ru
 Вход
ppkBB3cker v.2 © 2008-2014 @ PPK
[ Time : 0.041s | 18 Queries | GZIP : Off ]

Торрент трекер RUTOR.IN, Не можете зайти на rutor.org? Какой новый адрес рутор? Какое зеркало рутор? Не работает rutor.org и зеркала? Тогда наш торрент специально для вас. Rutor.in неофициальное зеркало rutor. В случае если у Вас заблокирован rutor или вдруг Вы не можете на него зайти, то Вы без труда сможете скачать бесплатно и без рекламы последние новинки кино, игр, сериалов и прочего у нас, на Rutor.in. Не нужно использовать прокси, чтобы зайти на рутор, достаточно воспользоваться нашим ресурсом. Все новые фильмы, игры, сериалы, книги и музыка за 2013 и 2014 годы через торрент бесплатно. Скачивайте фильмы в хорошем качестве, игры для пк, xbox, playstation без регистрации. У нас вы найдете новые Зарубежные сериалы и Русские сериалы 2013, 2014, 2015 годов. Оставайтесь с нами, качайте любимые фильмы, игры, сериалы, книги и музыку.
cron