img image001 image001 image001 image001 image001 image001 image001 image001 image001 image001 image001 image001 image001 image001 image001

Planets Sun Sun Sun
Статистика раздачи
Автор: Снежана | Размер: 4.01 ГБ | Добавлен: 24 июл 2013
Раздают: 1    Качают: 3
Скачать торрент
Скачать торрент
Описание торрента

СообщениеДобавлено: 24 июл 2013 

#77

Информация о фильме
Название: Сыновья уходят в бой
Жанр: Военный, Драма
Год выпуска: 1969
Режиссёр: Виктор Туров
В ролях: Нина Ургант, Светлана Суховей, Ольга Лысенко, Станислав Чуркин, Константин Григорьев, Юрий Горобец, Дмитрий Капка, Александр Захаров, Владимир Мартынов, Александра Климова, Э. Деркантис, Мария Капнист, Мария Захаревич, Владимир Белокуров, Бронюс Бабкаускас, А. Юкнявитене, Владимир Поночевный, Ауримас Бабкаускас

Описание:

Второй фильм дилогии, снятой по мотивам романа Алеся Адамовича «Партизаны». Продолжение фильма «Война под крышами».

В фильме повествуется о том, как Толя и Алексей — сыновья главной героини первой части, Анны Корзун, стали партизанами и воевали с окупантами на территории Белоруссии.

Для фильма, как и для первой части, Владимиром Высоцким было написано несколько песен:
• Он не вернулся из боя
• Песня о земле
• Сыновья уходят в бой



Страна: СССР
Продолжительность: 01:33:50
Перевод: Не требуется

Файл
Качество: DVB
Формат: MPEG2
Видео: MPEG2 Video 720x576 (4:3) 25.00fps 5804 Кбит/сек
Аудио: MPEG Audio 48000Hz mono 192kbps


Общее
Полное имя : C:Sihnovjya.ukhodi=odyat.v.boyj.1969.mpg
Формат : MPEG-PS
Размер файла : 4,01 Гбайт
Продолжительность : 1 ч. 33 м.
Общий поток : 6118 Кбит/сек
Видео
Идентификатор : 224 (0xE0)
Формат : MPEG Video
Версия формата : Version 2
Профиль формата : Main@Main
Параметр BVOP формата : Нет
Параметр матрицы формата : По умолчанию
Параметры GOP формата : M=1, N=33
Продолжительность : 1 ч. 33 м.
Вид битрейта : Переменный
Битрейт : 5804 Кбит/сек
Номинальный битрейт : 15,0 Мбит/сек
Ширина : 720 пикс.
Высота : 576 пикс.
Соотношение сторон : 4:3
Частота кадров : 25,000 кадр/сек
Стандарт вещания : PAL
Цветовое пространство : YUV
Подвыборка цветности : 4:2:0
Битовая глубина : 8 бит
Тип развёртки : Чересстрочная
Порядок развёртки : Верхнее поле первое
Метод сжатия : С потерями
Бит/(Пиксели*Кадры) : 0.560
Размер потока : 3,80 Гбайт (95%)
Аудио
Идентификатор : 192 (0xC0)
Формат : MPEG Audio
Версия формата : Version 1
Профиль формата : Layer 2
Расширение режима : Intensity Stereo + MS Stereo
Продолжительность : 1 ч. 33 м.
Вид битрейта : Постоянный
Битрейт : 192 Кбит/сек
Каналы : 1 канал
Частота : 48,0 КГц
Метод сжатия : С потерями
Размер потока : 129 Мбайт (3%)




   Похожие торренты   Торрент   Размер 
В этой теме нет новых непрочитанных сообщений. Сыновья уходят в бой (1969) TVRip

8 | 4

1.37 ГБ

В этой теме нет новых непрочитанных сообщений. Сыновья уходят в бой (1969) TVRip

11 | 3

752.96 МБ

В этой теме нет новых непрочитанных сообщений. Владимир Высоцкий - Сыновья уходят в бой [2 CD] (2002) MP3 от MediaClub

27 | 7

509.18 МБ

В этой теме нет новых непрочитанных сообщений. Сыновья (1946) DVDRip от New-Team

28 | 9

744.81 МБ

В этой теме нет новых непрочитанных сообщений. Сыновья (1946) DVDRip-AVC от New-Team

21 | 10

743.66 МБ

В этой теме нет новых непрочитанных сообщений. Чергинец Николай Иванович - Сыновья (1989) PDF

13 | 1

34.69 МБ

В этой теме нет новых непрочитанных сообщений. Слёзы - Из Рок-н-ролла Уходят Мертвыми (2012) MP3

10 | 3

152.76 МБ




Вы не можете начинать темы
Вы не можете отвечать на сообщения
Вы не можете редактировать свои сообщения
Вы не можете удалять свои сообщения
Вы не можете добавлять вложения

Перейти:  
Для Мосгорсуда, Роскомнадзора и рекламодателей: mosgorsud-torrent[собачка]yandex.ru
 Вход
ppkBB3cker v.2 © 2008-2014 @ PPK
[ Time : 0.057s | 14 Queries | GZIP : On ]

Торрент трекер RUTOR.IN, Не можете зайти на rutor.org? Какой новый адрес рутор? Какое зеркало рутор? Не работает rutor.org и зеркала? Тогда наш торрент специально для вас. Rutor.in неофициальное зеркало rutor. В случае если у Вас заблокирован rutor или вдруг Вы не можете на него зайти, то Вы без труда сможете скачать бесплатно и без рекламы последние новинки кино, игр, сериалов и прочего у нас, на Rutor.in. Не нужно использовать прокси, чтобы зайти на рутор, достаточно воспользоваться нашим ресурсом. Все новые фильмы, игры, сериалы, книги и музыка за 2013 и 2014 годы через торрент бесплатно. Скачивайте фильмы в хорошем качестве, игры для пк, xbox, playstation без регистрации. У нас вы найдете новые Зарубежные сериалы и Русские сериалы 2013, 2014, 2015 годов. Оставайтесь с нами, качайте любимые фильмы, игры, сериалы, книги и музыку.