img image001 image001 image001 image001 image001 image001 image001 image001 image001 image001 image001 image001 image001 image001 image001

Planets Sun Sun Sun
Статистика раздачи
Автор: Снежана | Размер: 2.8 ГБ | Добавлен: 24 июл 2013
Раздают: 0    Качают: 4
Скачать торрент
Скачать торрент
Описание торрента

СообщениеДобавлено: 24 июл 2013 

#77

Информация о фильме
Название: Война под крышами
Жанр: Драма, Военный
Год выпуска: 1967
Режиссёр: Виктор Туров
В ролях:

Нина Ургант — Анна Михайловна Корзун
Елизавета Уварова — пани Жигоцка
Екатерина Васильева — Надя
Любовь Малиновская — Любовь Карповна
Дмитрий Капка — дедушка Тодар
Александр Демьяненко — Павел
Михаил Матвеев — Виктор Петреня
Александр Захаров — Толя Корзун
Владимир Мартынов — Алексей
Владимир Белокуров — Борис Николаевич Стрельцов
Владимир Маслов — Казик Жигоцкий
Янис Грантиньш — Шумахер
Дмитрий Орлов — пан Жигоцкий
Виктор Чекмарёв — Пуговицын
Владимир Пицек — начальник полиции
Юрий Горобец — комиссар
Владимир Высоцкий — полицай на свадьбе
Константин Григорьев — Никита Пинчук
Улдис Лиелдиджс — Сырокваш

Описание:

По мотивам романа Алеся Адамовича.

С приходом оккупантов заведующая аптекой Анна Корзун установила связь с партизанами и передавала им информацию и медикаменты. Когда над ее домом нависла опасность, Анна, взяв с собой детей, пошла к партизанам...

В фильм вошли две песни Владимира Высоцкого — «Аисты» и «Песня о новом времени».

Продолжение дилогии - "Сыновья уходят в бой"



Страна: СССР
Продолжительность: 01:31:05
Перевод: не требуется

Файл
Качество: TVRip (DVD5)
Формат: DVD Video
Видео: MPEG2 Video 720x576 (4:3) 25.00fps 4065 (9282)Kbps
Аудио: Dolby AC3 48000Hz stereo 256Kbps


Полное имя : G:DVDВойна под крышамиVIDEO_TSVIDEO_TS.BUP
Формат : DVD Video
Профиль формата : Menu
Размер файла : 8,00 Кбайт
Видео
Идентификатор : 224 (0xE0)
Формат : MPEG Video
Версия формата : Version 1
Вид битрейта : Переменный
Ширина : 720 пикс.
Высота : 576 пикс.
Соотношение сторон : 4:3
Частота кадров : 25,000 кадр/сек
Стандарт вещания : PAL
Метод сжатия : С потерями
Общее
Полное имя : G:DVDВойна под крышамиVIDEO_TSVIDEO_TS.IFO
Формат : DVD Video
Профиль формата : Menu
Размер файла : 8,00 Кбайт
Видео
Идентификатор : 224 (0xE0)
Формат : MPEG Video
Версия формата : Version 1
Вид битрейта : Переменный
Ширина : 720 пикс.
Высота : 576 пикс.
Соотношение сторон : 4:3
Частота кадров : 25,000 кадр/сек
Стандарт вещания : PAL
Метод сжатия : С потерями
Общее
Полное имя : G:DVDВойна под крышамиVIDEO_TSVTS_01_0.BUP
Формат : DVD Video
Профиль формата : Program
Размер файла : 64,0 Кбайт
Продолжительность : 1 ч. 31 м.
Общий поток : 95 бит/сек
Видео
Идентификатор : 224 (0xE0)
Формат : MPEG Video
Версия формата : Version 2
Продолжительность : 1 ч. 31 м.
Вид битрейта : Переменный
Ширина : 720 пикс.
Высота : 576 пикс.
Соотношение сторон : 4:3
Частота кадров : 25,000 кадр/сек
Стандарт вещания : PAL
Метод сжатия : С потерями
Аудио
Идентификатор : 128 (0x80)
Формат : AC-3
Формат/Информация : Audio Coding 3
Продолжительность : 1 ч. 31 м.
Каналы : 2 канала
Частота : 48,0 КГц
Метод сжатия : С потерями
Меню
Продолжительность : 1 ч. 31 м.
00:00:00.000 : Chapter 1
00:04:38.400 : Chapter 2
00:05:02.880 : Chapter 3
00:10:14.880 : Chapter 4
00:14:36.480 : Chapter 5
00:15:33.120 : Chapter 6
00:20:24.000 : Chapter 7
00:25:26.400 : Chapter 8
00:30:06.720 : Chapter 9
00:35:31.200 : Chapter 10
00:37:51.840 : Chapter 11
00:40:06.720 : Chapter 12
00:45:09.120 : Chapter 13
00:50:11.520 : Chapter 14
00:50:43.680 : Chapter 15
00:55:01.920 : Chapter 16
01:00:04.320 : Chapter 17
01:04:03.840 : Chapter 18
01:05:00.480 : Chapter 19
01:10:24.960 : Chapter 20
01:15:05.280 : Chapter 21
01:20:07.680 : Chapter 22
01:25:10.080 : Chapter 23
01:30:00.960 : Chapter 24
List (Audio) : 0
Общее
Полное имя : G:DVDВойна под крышамиVIDEO_TSVTS_01_0.IFO
Формат : DVD Video
Профиль формата : Program
Размер файла : 64,0 Кбайт
Продолжительность : 1 ч. 31 м.
Общий поток : 95 бит/сек
Видео
Идентификатор : 224 (0xE0)
Формат : MPEG Video
Версия формата : Version 2
Продолжительность : 1 ч. 31 м.
Вид битрейта : Переменный
Ширина : 720 пикс.
Высота : 576 пикс.
Соотношение сторон : 4:3
Частота кадров : 25,000 кадр/сек
Стандарт вещания : PAL
Метод сжатия : С потерями
Аудио
Идентификатор : 128 (0x80)
Формат : AC-3
Формат/Информация : Audio Coding 3
Продолжительность : 1 ч. 31 м.
Каналы : 2 канала
Частота : 48,0 КГц
Метод сжатия : С потерями
Меню
Продолжительность : 1 ч. 31 м.
00:00:00.000 : Chapter 1
00:04:38.400 : Chapter 2
00:05:02.880 : Chapter 3
00:10:14.880 : Chapter 4
00:14:36.480 : Chapter 5
00:15:33.120 : Chapter 6
00:20:24.000 : Chapter 7
00:25:26.400 : Chapter 8
00:30:06.720 : Chapter 9
00:35:31.200 : Chapter 10
00:37:51.840 : Chapter 11
00:40:06.720 : Chapter 12
00:45:09.120 : Chapter 13
00:50:11.520 : Chapter 14
00:50:43.680 : Chapter 15
00:55:01.920 : Chapter 16
01:00:04.320 : Chapter 17
01:04:03.840 : Chapter 18
01:05:00.480 : Chapter 19
01:10:24.960 : Chapter 20
01:15:05.280 : Chapter 21
01:20:07.680 : Chapter 22
01:25:10.080 : Chapter 23
01:30:00.960 : Chapter 24
List (Audio) : 0
Общее
Полное имя : G:DVDВойна под крышамиVIDEO_TSVTS_01_1.VOB
Формат : MPEG-PS
Размер файла : 1024 Мбайт
Продолжительность : 32 м.
Общий поток : 4376 Кбит/сек
Видео
Идентификатор : 224 (0xE0)
Формат : MPEG Video
Версия формата : Version 2
Профиль формата : Main@Main
Параметр BVOP формата : Да
Параметр матрицы формата : По умолчанию
Параметры GOP формата : M=3, N=12
Продолжительность : 32 м.
Вид битрейта : Переменный
Битрейт : 4033 Кбит/сек
Номинальный битрейт : 9282 Кбит/сек
Ширина : 720 пикс.
Высота : 576 пикс.
Соотношение сторон : 4:3
Частота кадров : 25,000 кадр/сек
Стандарт вещания : PAL
Цветовое пространство : YUV
Подвыборка цветности : 4:2:0
Битовая глубина : 8 бит
Тип развёртки : Чересстрочная
Порядок развёртки : Верхнее поле первое
Метод сжатия : С потерями
Бит/(Пиксели*Кадры) : 0.389
Размер потока : 944 Мбайт (92%)
Аудио
Идентификатор : 189 (0xBD)-128 (0x80)
Формат : AC-3
Формат/Информация : Audio Coding 3
Расширение режима : CM (complete main)
Режим смешивания : DVD-Video
Продолжительность : 32 м.
Вид битрейта : Постоянный
Битрейт : 256 Кбит/сек
Каналы : 2 канала
Расположение каналов : Front: L R
Частота : 48,0 КГц
Битовая глубина : 16 бит
Метод сжатия : С потерями
Задержка видео : -92 мс.
Размер потока : 59,9 Мбайт (6%)
Меню
Общее
Полное имя : G:DVDВойна под крышамиVIDEO_TSVTS_01_2.VOB
Формат : MPEG-PS
Размер файла : 1024 Мбайт
Продолжительность : 32 м.
Общий поток : 4404 Кбит/сек
Видео
Идентификатор : 224 (0xE0)
Формат : MPEG Video
Версия формата : Version 2
Профиль формата : Main@Main
Параметр BVOP формата : Да
Параметр матрицы формата : По умолчанию
Параметры GOP формата : M=3, N=12
Продолжительность : 32 м.
Вид битрейта : Переменный
Битрейт : 4060 Кбит/сек
Номинальный битрейт : 9282 Кбит/сек
Ширина : 720 пикс.
Высота : 576 пикс.
Соотношение сторон : 4:3
Частота кадров : 25,000 кадр/сек
Стандарт вещания : PAL
Цветовое пространство : YUV
Подвыборка цветности : 4:2:0
Битовая глубина : 8 бит
Тип развёртки : Чересстрочная
Порядок развёртки : Верхнее поле первое
Метод сжатия : С потерями
Бит/(Пиксели*Кадры) : 0.392
Размер потока : 944 Мбайт (92%)
Аудио
Идентификатор : 189 (0xBD)-128 (0x80)
Формат : AC-3
Формат/Информация : Audio Coding 3
Расширение режима : CM (complete main)
Режим смешивания : DVD-Video
Продолжительность : 32 м.
Вид битрейта : Постоянный
Битрейт : 256 Кбит/сек
Каналы : 2 канала
Расположение каналов : Front: L R
Частота : 48,0 КГц
Битовая глубина : 16 бит
Метод сжатия : С потерями
Задержка видео : -572 мс.
Размер потока : 59,5 Мбайт (6%)
Меню
Общее
Полное имя : G:DVDВойна под крышамиVIDEO_TSVTS_01_3.VOB
Формат : MPEG-PS
Размер файла : 815 Мбайт
Продолжительность : 25 м.
Общий поток : 4409 Кбит/сек
Видео
Идентификатор : 224 (0xE0)
Формат : MPEG Video
Версия формата : Version 2
Профиль формата : Main@Main
Параметр BVOP формата : Да
Параметр матрицы формата : По умолчанию
Параметры GOP формата : M=3, N=12
Продолжительность : 25 м.
Вид битрейта : Переменный
Битрейт : 4065 Кбит/сек
Номинальный битрейт : 9282 Кбит/сек
Ширина : 720 пикс.
Высота : 576 пикс.
Соотношение сторон : 4:3
Частота кадров : 25,000 кадр/сек
Стандарт вещания : PAL
Цветовое пространство : YUV
Подвыборка цветности : 4:2:0
Битовая глубина : 8 бит
Тип развёртки : Чересстрочная
Порядок развёртки : Верхнее поле первое
Метод сжатия : С потерями
Бит/(Пиксели*Кадры) : 0.392
Размер потока : 752 Мбайт (92%)
Аудио
Идентификатор : 189 (0xBD)-128 (0x80)
Формат : AC-3
Формат/Информация : Audio Coding 3
Расширение режима : CM (complete main)
Режим смешивания : DVD-Video
Продолжительность : 25 м.
Вид битрейта : Постоянный
Битрейт : 256 Кбит/сек
Каналы : 2 канала
Расположение каналов : Front: L R
Частота : 48,0 КГц
Битовая глубина : 16 бит
Метод сжатия : С потерями
Задержка видео : -572 мс.
Размер потока : 47,3 Мбайт (6%)




   Похожие торренты   Торрент   Размер 
В этой теме нет новых непрочитанных сообщений. Война под крышами (1967) TVRip

0 | 3

699.9 МБ

В этой теме нет новых непрочитанных сообщений. Война под крышами (1967) TVRip

6 | 5

1.37 ГБ

В этой теме нет новых непрочитанных сообщений. Война и мир (1967) DVDRip

1060 | 238

4.36 ГБ

В этой теме нет новых непрочитанных сообщений. Война и мир [Квадрология] (1965-1967) DVDRip от MediaClub | КПК

2358 | 188

1.79 ГБ

В этой теме нет новых непрочитанных сообщений. Виктор Астафьев - Где-то гремит война (1967) (2006) MP3

98 | 6

178.69 МБ

В этой теме нет новых непрочитанных сообщений. Дубравка (1967) TVRip

30 | 4

1.26 ГБ

В этой теме нет новых непрочитанных сообщений. Под крышами Монмартра (1969) DVDRip

407 | 5

1.37 ГБ




Вы не можете начинать темы
Вы не можете отвечать на сообщения
Вы не можете редактировать свои сообщения
Вы не можете удалять свои сообщения
Вы не можете добавлять вложения

Перейти:  
Для Мосгорсуда, Роскомнадзора и рекламодателей: mosgorsud-torrent[собачка]yandex.ru
 Вход
ppkBB3cker v.2 © 2008-2014 @ PPK
[ Time : 0.060s | 17 Queries | GZIP : Off ]

Торрент трекер RUTOR.IN, Не можете зайти на rutor.org? Какой новый адрес рутор? Какое зеркало рутор? Не работает rutor.org и зеркала? Тогда наш торрент специально для вас. Rutor.in неофициальное зеркало rutor. В случае если у Вас заблокирован rutor или вдруг Вы не можете на него зайти, то Вы без труда сможете скачать бесплатно и без рекламы последние новинки кино, игр, сериалов и прочего у нас, на Rutor.in. Не нужно использовать прокси, чтобы зайти на рутор, достаточно воспользоваться нашим ресурсом. Все новые фильмы, игры, сериалы, книги и музыка за 2013 и 2014 годы через торрент бесплатно. Скачивайте фильмы в хорошем качестве, игры для пк, xbox, playstation без регистрации. У нас вы найдете новые Зарубежные сериалы и Русские сериалы 2013, 2014, 2015 годов. Оставайтесь с нами, качайте любимые фильмы, игры, сериалы, книги и музыку.
cron