img image001 image001 image001 image001 image001 image001 image001 image001 image001 image001 image001 image001 image001 image001 image001

Planets Sun Sun Sun
Статистика раздачи
Автор: Снежана | Размер: 1.37 ГБ | Добавлен: 24 июл 2013
Раздают: 157    Качают: 17
Скачать торрент
Скачать торрент
Описание торрента

СообщениеДобавлено: 24 июл 2013 

#77

Информация о фильме
Название: Неизвестные страницы из жизни разведчика
Год выхода: 1990
Жанр: Военный
Режиссер: Владимир Чеботарев
В ролях: Юрий Дуванов, Андрей Алешин, Виталий Зикора, Александра Колкунова, Виктор Степанов, Геннадий Корольков, Владимир Коренев, Марина Голуб, Гедиминас Гирдвайнис, Витаутас Томкус, Валерий Еремичев, Валерий Афанасьев, Антон Бычков

О фильме:
События происходят в канун и в период Великой Отечественной войны. Советский разведчик, заброшенный на оккупированную немцами территорию, оказывается в трагической ситуации: высокие чины органов госбезопасности ставят его в положение отверженного. Однако он продолжает действовать — на свой страх и риск…

General
Complete name : Neizvestnie.stranici.iz.zhizni.razvedchika.1990.DivX.DVDRip.avi
Format : AVI
Format/Info : Audio Video Interleave
File size : 1.37 GiB
Duration : 1h 29mn 48s
Overall bit rate : 2 182 Kbps
Writing application : VirtualDubModRus 1.5.10.2 (build 2542/release)
Writing library : VirtualDubMod build 2542/release
Video #0
ID : 0
Format : MPEG-4 Visual
Format settings, BVOP : 1
Format settings, QPel : No
Format settings, GMC : No warppoints
Format settings, Matrix : Default (H.263)
Muxing mode : Packed bitstream
Codec ID : DX50
Codec ID/Hint : DivX 5
Duration : 1h 29mn 48s
Bit rate : 1 980 Kbps
Width : 688 pixels
Height : 512 pixels
Display aspect ratio : 4:3
Frame rate : 25.000 fps
Color space : YUV
Chroma subsampling : 4:2:0
Bit depth : 8 bits
Scan type : Progressive
Compression mode : Lossy
Bits/(Pixel*Frame) : 0.225
Stream size : 1.24 GiB (91%)
Writing library : DivX 6.8.3-6.8.4 (UTC 2008-06-07)
Audio #1
ID : 1
Format : AC-3
Format/Info : Audio Coding 3
Mode extension : CM (complete main)
Codec ID : 2000
Duration : 1h 29mn 48s
Bit rate mode : Constant
Bit rate : 192 Kbps
Channel(s) : 2 channels
Channel positions : Front: L R
Sampling rate : 48.0 KHz
Bit depth : 16 bits
Compression mode : Lossy
Stream size : 123 MiB (9%)
Alignment : Aligned on interleaves
Interleave, duration : 40 ms (1.00 video frame)
Interleave, preload duration : 512 ms



Страна: СССР
Студия: Студия "Время"
Продолжительность: 01:29:48
Язык: Русский

Файл
Кодек: DivX
Качество: DVDRip
Видео: 688x512, 1980 kbps, 25 fps
Звук: AC3, 192кб/с, 2 канала

Семпл

, , , , ,



   Похожие торренты   Торрент   Размер 
В этой теме нет новых непрочитанных сообщений. Страницы жизни (1948) SATRip от New-Team

2 | 6

1.09 ГБ

В этой теме нет новых непрочитанных сообщений. Страницы жизни (1948) SATRip-AVC от New-Team

7 | 9

1.09 ГБ

В этой теме нет новых непрочитанных сообщений. Страницы жизни (1948) SATRip от New-Team

2 | 12

745.71 МБ

В этой теме нет новых непрочитанных сообщений. Неизвестные люди (Неизвестные лица) / Persons Unknown [01х04] (2010) TVRip

0 | 2

353.29 МБ

В этой теме нет новых непрочитанных сообщений. Сладости жизни / Life Is Sweet (1990) DVDRip от Brazzass

0 | 2

1.47 ГБ

В этой теме нет новых непрочитанных сообщений. Блюз о лучшей жизни / Mo' Better Blues (1990) DVDRip от NovaLan

3 | 10

2.06 ГБ

В этой теме нет новых непрочитанных сообщений. Блюз о лучшей жизни / Mo' Better Blues (1990) DVDRip от Alekxandr48 | P2

4 | 2

1.37 ГБ




Вы не можете начинать темы
Вы не можете отвечать на сообщения
Вы не можете редактировать свои сообщения
Вы не можете удалять свои сообщения
Вы не можете добавлять вложения

Перейти:  
Для Мосгорсуда, Роскомнадзора и рекламодателей: mosgorsud-torrent[собачка]yandex.ru
 Вход
ppkBB3cker v.2 © 2008-2014 @ PPK
[ Time : 0.038s | 15 Queries | GZIP : Off ]

cron