img image001 image001 image001 image001 image001 image001 image001 image001 image001 image001 image001 image001 image001 image001 image001

Planets Sun Sun Sun
Статистика раздачи
Автор: Снежана | Размер: 2.66 ГБ | Добавлен: 24 июл 2013
Раздают: 35    Качают: 4
Скачать торрент
Скачать торрент
Описание торрента

СообщениеДобавлено: 24 июл 2013 



Информация о фильме
Название: Двадцатое декабря
Год выхода: 1981
Жанр: Исторический
Режиссер: Григорий Никулин
В ролях: Кирилл Лавров, Михаил Казаков, Андрей Толубеев, Игорь Комаров, Владимир Головин, Анатолий Рудаков, Георгий Дрозд, Сергей Юрский, Эммануил Виторган, Леонид Неведомский, Геннадий Бортников

О фильме:
Историко-приключенческий фильм в четырех сериях . Посвящается первым чекистам и снят по сценарию Юлиана Семёнова. Конец 1917 года. Большевики недавно пришли к власти и делают всё возможное чтобы её удержать и навести в стране порядок. Для этого 7 (20) декабря 1917 года при Совете народных комиссаров РСФСР по предложению В. И. Ленина создаётся Всероссийская чрезвычайная комиссия по борьбе с контрреволюцией и саботажем, сокращённо ВЧК. Возглавил комиссию Феликс Дзержинский.
Значительное место в фильме занимают образы противников Ленина Каменева и Рыкова.

Серии:
1. Военная диктатура
2. Саботаж
3. Террор
4. ВЧК

General
Complete name : 20.dekabrja.1981.DivX.TVRip.avii
Format : AVI
Format/Info : Audio Video Interleave
File size : 696 MiB
Duration : 1h 5mn 17s
Overall bit rate : 1 491 Kbps
Writing application : Nandub v1.0rc2
Writing library : Nandub build 1853/release
Video #0
ID : 0
Format : MPEG-4 Visual
Format settings, BVOP : 1
Format settings, QPel : No
Format settings, GMC : No warppoints
Format settings, Matrix : Default (H.263)
Muxing mode : Packed bitstream
Codec ID : DX50
Codec ID/Hint : DivX 5
Duration : 1h 5mn 17s
Bit rate : 1 351 Kbps
Width : 576 pixels
Height : 432 pixels
Display aspect ratio : 4:3
Frame rate : 25.000 fps
Color space : YUV
Chroma subsampling : 4:2:0
Bit depth : 8 bits
Scan type : Progressive
Compression mode : Lossy
Bits/(Pixel*Frame) : 0.217
Stream size : 631 MiB (91%)
Writing library : DivX 5.1.1 (Maupiti) (UTC 2003-11-19)
Audio #1
ID : 1
Format : MPEG Audio
Format version : Version 1
Format profile : Layer 3
Codec ID : 55
Codec ID/Hint : MP3
Duration : 1h 5mn 17s
Bit rate mode : Constant
Bit rate : 128 Kbps
Channel(s) : 1 channel
Sampling rate : 44.1 KHz
Compression mode : Lossy
Stream size : 59.8 MiB (9%)
Alignment : Aligned on interleaves
Interleave, duration : 26 ms (0.65 video frame)
Interleave, preload duration : 496 ms
Writing library : LAME3.93
Encoding settings : -m m -V 4 -q 2 -lowpass 20.1 -b 128



Страна: СССР
Студия: Ленфильм
Продолжительность: 4 x ~ 01:05:00
Язык: Русский

Файл
Кодек: DivX
Качество: TVRip
Видео: 576x432, ~ 1350 kbps, 25 fps
Звук: MP3, 128кб/с, 1 канал

Награды: Государственная премия РСФСР имени братьев Васильевых режиссёру Г. Никулину и актёрам М. Козакову и В. Головину в 1983 году

Семпл

, , , ,



   Похожие торренты   Торрент   Размер 
В этой теме нет новых непрочитанных сообщений. А ну-ка, дедушки! (1981) TVRip

6 | 3

1.27 ГБ

В этой теме нет новых непрочитанных сообщений. Звездопад (1981) TVRip

16 | 3

919.83 МБ

В этой теме нет новых непрочитанных сообщений. Барабаниада (1981) TVRip

28 | 2

175.91 МБ

В этой теме нет новых непрочитанных сообщений. Вторжение (1981) TVRip

6 | 9

1.44 ГБ

В этой теме нет новых непрочитанных сообщений. Этот фантастический мир 4 (1981) TVRip

2 | 6

758.36 МБ

В этой теме нет новых непрочитанных сообщений. Этот фантастический мир 5 (1981) TVRip

2 | 6

592.93 МБ

В этой теме нет новых непрочитанных сообщений. Этот фантастический мир 6 (1981) TVRip

14 | 2

885.03 МБ




Вы не можете начинать темы
Вы не можете отвечать на сообщения
Вы не можете редактировать свои сообщения
Вы не можете удалять свои сообщения
Вы не можете добавлять вложения

Перейти:  
Для Мосгорсуда, Роскомнадзора и рекламодателей: mosgorsud-torrent[собачка]yandex.ru
 Вход
ppkBB3cker v.2 © 2008-2014 @ PPK
[ Time : 0.203s | 14 Queries | GZIP : Off ]

Торрент трекер RUTOR.IN, Не можете зайти на rutor.org? Какой новый адрес рутор? Какое зеркало рутор? Не работает rutor.org и зеркала? Тогда наш торрент специально для вас. Rutor.in неофициальное зеркало rutor. В случае если у Вас заблокирован rutor или вдруг Вы не можете на него зайти, то Вы без труда сможете скачать бесплатно и без рекламы последние новинки кино, игр, сериалов и прочего у нас, на Rutor.in. Не нужно использовать прокси, чтобы зайти на рутор, достаточно воспользоваться нашим ресурсом. Все новые фильмы, игры, сериалы, книги и музыка за 2013 и 2014 годы через торрент бесплатно. Скачивайте фильмы в хорошем качестве, игры для пк, xbox, playstation без регистрации. У нас вы найдете новые Зарубежные сериалы и Русские сериалы 2013, 2014, 2015 годов. Оставайтесь с нами, качайте любимые фильмы, игры, сериалы, книги и музыку.