img image001 image001 image001 image001 image001 image001 image001 image001 image001 image001 image001 image001 image001 image001 image001

Planets Sun Sun Sun
Статистика раздачи
Автор: Снежана | Размер: 1.37 ГБ | Добавлен: 24 июл 2013
Раздают: 45    Качают: 5
Скачать торрент
Скачать торрент
Описание торрента

СообщениеДобавлено: 24 июл 2013 

Первый после Бога / Капитан
(2005)
DVDRip-AVC [Hi10P] от FREEISLAND



Год выхода: 2005
Жанр: Военный, драма, боевик

Режиссер: Василий Чигинский

В ролях:
Дмитрий Орлов, Владимир Гостюхин, Юрий Степанов, Виктор Сухоруков, Нина Русланова, Сергей Горобченко, Ирина Бьерклунд, Елизавета Боярская, Михаил Гомиашвили, Дмитрий Рудков, Сергей Рубеко, Екатерина Вуличенко

Описание:
Фильм, основанный на фактах биографии легендарного капитана-подводника Александра Маринеско, которого Гитлер объявил своим "врагом номер один". Действие картины разворачивается в 1944 году. Капитан Маринин, одержавший самые громкие победы в истории советского подводного флота, становится мишенью для родных спецслужб, которые не простили ему ни его "непролетарского" происхождения, ни влюбленности в шведскую подданную...



Страна: Россия
Выпущено: Фонд Михаила Калатозова
Продолжительность: 1 ч. 39 м. 52 с.
Перевод: Оригинал
Оригинальная разбивка на главы: сохранена

Внимание!
Рип в High 10 Profile, в настоящее время не поддерживается большинством аппаратных проигрывателей.
Для корректного воспроизведения может потребоваться обновление ПО.
Владельцам несовместимого железа просьба не беспокоить, на трекере есть альтернативные релизы.

Качество: DVDRip-AVC Hi10P (SSIM: 0.9875804)
Исходник: DVD9
Контейнер: MKV
Видео кодек: x264 High10@L4.0
Аудио кодек: AC3
Видео: AVC at 1575 Кбит/сек, 704 x 544 @ 1002 x 544 (1.842) at 25.000 fps
Аудио: AC-3 at 384 Кбит/сек, 6 каналов, 48,0 КГц
Субтитры: нет


Общее
Уникальный идентификатор : 199087611957736289161409808805458127767 (0x95C6E11C98A7C7EBAC3EFD1773ACAB97)
Полное имя : Первый после Бога (2005) DVDRip-Hi10P.mkv
Формат : Matroska
Версия формата : Version 2
Размер файла : 1,37 Гбайт
Продолжительность : 1 ч. 39 м.
Общий поток : 1960 Кбит/сек
Название фильма : релиз от FREEISLAND.ORG
Дата кодирования : UTC 2012-04-22 10:05:44
Программа кодирования : mkvmerge v5.5.0 ('Healer') built on Apr 6 2012 21:43:24
Библиотека кодирования : libebml v1.2.3 + libmatroska v1.3.0

Видео
Идентификатор : 1
Формат : AVC
Формат/Информация : Advanced Video Codec
Профиль формата : High 10@L4.0
Параметр CABAC формата : Да
Параметр ReFrames формата : 16 кадров
Идентификатор кодека : V_MPEG4/ISO/AVC
Продолжительность : 1 ч. 39 м.
Битрейт : 1575 Кбит/сек
Ширина : 704 пикселя
Высота : 544 пикселя
Соотношение сторон : 16:9
Частота кадров : 25,000 кадров/сек
Цветовое пространство : YUV
Субдискретизация насыщенности : 4:2:0
Битовая глубина : 10 бит
Тип развёртки : Прогрессивная
Бит/(Пиксели*Кадры) : 0.165
Размер потока : 1,07 Гбайт (78%)
Библиотека кодирования : x264 core 123 r2194+664+26 631fa42 tMod [10-bit@all X86_64]
Настройки программы : cabac=1 / ref=16 / deblock=1:-2:-1 / analyse=0x3:0x133 / me=umh / subme=11 / psy=1 / fade_compensate=0.00 / psy_rd=1.00:0.10 / mixed_ref=1 / me_range=64 / chroma_me=1 / trellis=2 / 8x8dct=1 / cqm=0 / deadzone=21,11 / fast_pskip=0 / chroma_qp_offset=-3 / threads=12 / sliced_threads=0 / nr=0 / decimate=1 / interlaced=0 / bluray_compat=0 / constrained_intra=0 / fgo=0 / bframes=12 / b_pyramid=2 / b_adapt=2 / b_bias=0 / direct=3 / weightb=1 / open_gop=0 / weightp=2 / keyint=250 / keyint_min=25 / scenecut=40 / intra_refresh=0 / rc=2pass / mbtree=0 / bitrate=1575 / ratetol=1.0 / qcomp=1.00 / qpmin=0 / qpmax=48 / qpstep=4 / cplxblur=20.0 / qblur=0.5 / ip_ratio=1.40 / pb_ratio=1.30 / aq=4:0.88
Default : Да
Forced : Нет
Основные цвета : BT.601-6 525, BT.1358 525, BT.1700 NTSC, SMPTE 170M
Характеристики трансфера : BT.601-6 525, BT.601-6 625, BT.1358 525, BT.1358 625, BT.1700 NTSC, SMPTE 170M
Коэффициенты матрицы : BT.601-6 525, BT.1358 525, BT.1700 NTSC, SMPTE 170M

Аудио
Идентификатор : 2
Формат : AC-3
Формат/Информация : Audio Coding 3
Расширение режима : CM (complete main)
Идентификатор кодека : A_AC3
Продолжительность : 1 ч. 39 м.
Вид битрейта : Постоянный
Битрейт : 384 Кбит/сек
Каналы : 6 каналов
Расположение каналов : Front: L C R, Side: L R, LFE
Частота : 48,0 КГц
Битовая глубина : 16 бит
Метод сжатия : С потерями
Задержка видео : 1 с. 343 мс.
Размер потока : 274 Мбайт (20%)
Язык : Russian
Default : Да
Forced : Нет

Меню
00:00:00.000 : :01
00:07:36.120 : :02
00:16:21.480 : :03
00:26:50.800 : :04
00:40:11.800 : :05
00:48:44.000 : :06
00:54:54.480 : :07
01:05:11.400 : :08
01:13:38.360 : :09
01:21:07.720 : :10
01:26:57.440 : :11
01:35:34.960 : :12
01:39:51.640 : :13



















Релиз от:

Если у вас возникают вопросы типа:
-почему у меня есть звук и отсутствует изображение?
-почему у меня рассыпается картинка?
-почему у меня картинка фонит синевой или зеленью?
-зачем и кому всё это нужно?
и тому подобные, читаем FAQ.
ссылка на FAQ запрещена правилами.

По этому, гуглим на тему спойлера (Что такое 10-ти битное видео (High 10 Profile - Hi10P), и как его смотреть?).



   Похожие торренты   Торрент   Размер 
В этой теме нет новых непрочитанных сообщений. Первый после Бога / Капитан (2005) DVDRip-AVC [Hi10P] от FREEISLAND

9 | 15

698.52 МБ

В этой теме нет новых непрочитанных сообщений. Первый после Бога (2005) DVDRip

271 | 17

1.37 ГБ

В этой теме нет новых непрочитанных сообщений. Первый после Бога (2005) DVDRip от BT-CLUB

152 | 5

1.47 ГБ

В этой теме нет новых непрочитанных сообщений. Турецкий гамбит [полная телеверсия] (2005) DVDRip-AVC Hi10P от FREEISLAND

440 | 27

4.34 ГБ

В этой теме нет новых непрочитанных сообщений. Первый после Бога (2005) DVD5

49 | 7

4.37 ГБ

В этой теме нет новых непрочитанных сообщений. Хаос / Chaos (2005) BDRip 1080p [Hi10P] от FREEISLAND

19 | 16

4.37 ГБ

В этой теме нет новых непрочитанных сообщений. Zолушка (2012) DVDRip-AVC [Hi10P] от FREEISLAND

0 | 4

697.94 МБ




Вы не можете начинать темы
Вы не можете отвечать на сообщения
Вы не можете редактировать свои сообщения
Вы не можете удалять свои сообщения
Вы не можете добавлять вложения

Перейти:  
Для Мосгорсуда, Роскомнадзора и рекламодателей: mosgorsud-torrent[собачка]yandex.ru
 Вход
ppkBB3cker v.2 © 2008-2014 @ PPK
[ Time : 0.023s | 17 Queries | GZIP : Off ]

Торрент трекер RUTOR.IN, Не можете зайти на rutor.org? Какой новый адрес рутор? Какое зеркало рутор? Не работает rutor.org и зеркала? Тогда наш торрент специально для вас. Rutor.in неофициальное зеркало rutor. В случае если у Вас заблокирован rutor или вдруг Вы не можете на него зайти, то Вы без труда сможете скачать бесплатно и без рекламы последние новинки кино, игр, сериалов и прочего у нас, на Rutor.in. Не нужно использовать прокси, чтобы зайти на рутор, достаточно воспользоваться нашим ресурсом. Все новые фильмы, игры, сериалы, книги и музыка за 2013 и 2014 годы через торрент бесплатно. Скачивайте фильмы в хорошем качестве, игры для пк, xbox, playstation без регистрации. У нас вы найдете новые Зарубежные сериалы и Русские сериалы 2013, 2014, 2015 годов. Оставайтесь с нами, качайте любимые фильмы, игры, сериалы, книги и музыку.