img image001 image001 image001 image001 image001 image001 image001 image001 image001 image001 image001 image001 image001 image001 image001

Planets Sun Sun Sun
Статистика раздачи
Автор: Снежана | Размер: 697.78 МБ | Добавлен: 24 июл 2013
Раздают: 10    Качают: 3
Скачать торрент
Скачать торрент
Описание торрента

СообщениеДобавлено: 24 июл 2013 

#77

Информация о фильме
Название: Встреча перед разлукой
Жанр: Приключения, военный
Год выпуска: 1985
Режиссёр: Виктор Храмов
В ролях: Елена Дробышева, Андрей Арзяев, Михаил Яковлев, Владимир Кашпур, В. Нестеров, Н. Наркевич, Р. Лавров и др.

Описание:

По мотивам повести В.Тельпугова "Парашютисты".

В основе сюжета - история молодых людей Жени, Ивана и Володи, оказавшихся 22 июня 1941 года на оккупированной фашистами территории. Спустя восемь дней, пройдя через тяжелые испытания, они пробиваются к советским войскам. Впереди у них - долгие вёрсты войны...



Страна: СССР
Продолжительность: 01:19:13
Перевод: Не требуется

Файл
Качество видео: DVDScr
Формат видео: AVI
Видео: 704x528 (1.33:1), 25 fps, XviD MPEG-4 ~1093 kbps avg, 0.12 bit/pixel
Аудио: 48 kHz, MPEG Layer 3, 2 ch, ~128.00 kbps avg

Семпл

Скриншоты:


General
Complete name : D:Vstrecha_pered_razlukoy_1985_HQ.avi
Format : AVI
Format/Info : Audio Video Interleave
File size : 698 MiB
Duration : 1h 19mn
Overall bit rate : 1 231 Kbps

Video
ID : 0
Format : MPEG-4 Visual
Format profile : Advanced Simple@L5
Format settings, BVOP : Yes
Format settings, QPel : No
Format settings, GMC : No warppoints
Format settings, Matrix : Default (H.263)
Codec ID : XVID
Codec ID/Hint : XviD
Duration : 1h 19mn
Bit rate : 1 094 Kbps
Width : 704 pixels
Height : 528 pixels
Display aspect ratio : 4:3
Frame rate : 25.000 fps
Color space : YUV
Chroma subsampling : 4:2:0
Bit depth : 8 bits
Scan type : Progressive
Compression mode : Lossy
Bits/(Pixel*Frame) : 0.118
Stream size : 620 MiB (89%)
Writing library : XviD 1.2.1 (UTC 2008-12-04)

Audio
ID : 1
Format : MPEG Audio
Format version : Version 1
Format profile : Layer 3
Mode : Joint stereo
Mode extension : MS Stereo
Codec ID : 55
Codec ID/Hint : MP3
Duration : 1h 19mn
Bit rate mode : Constant
Bit rate : 128 Kbps
Channel(s) : 2 channels
Sampling rate : 48.0 KHz
Compression mode : Lossy
Stream size : 72.5 MiB (10%)
Alignment : Split accross interleaves
Interleave, duration : 40 ms (1.00 video frame)
Interleave, preload duration : 500 ms







   Похожие торренты   Торрент   Размер 
В этой теме нет новых непрочитанных сообщений. Встреча в горах (1966) DVDScr

84 | 7

935.9 МБ

В этой теме нет новых непрочитанных сообщений. Матч состоится в любую погоду (1985) DVDScr

223 | 9

1.36 ГБ

В этой теме нет новых непрочитанных сообщений. Виза - Ночь перед разлукой (1990) FLAC

2 | 2

1.04 ГБ

В этой теме нет новых непрочитанных сообщений. Встреча (1979) SATRip

21 | 2

494.81 МБ

В этой теме нет новых непрочитанных сообщений. Встреча с неизвестным (2005) DVDRip

20 | 7

1.29 ГБ

В этой теме нет новых непрочитанных сообщений. Встреча / La visita (1964) DVDRip | L1

25 | 11

1.43 ГБ

В этой теме нет новых непрочитанных сообщений. Последняя встреча [01-16 из 16] (2011) DVDRip

362 | 40

8.6 ГБ




Вы не можете начинать темы
Вы не можете отвечать на сообщения
Вы не можете редактировать свои сообщения
Вы не можете удалять свои сообщения
Вы не можете добавлять вложения

Перейти:  
Для Мосгорсуда, Роскомнадзора и рекламодателей: mosgorsud-torrent[собачка]yandex.ru
 Вход
ppkBB3cker v.2 © 2008-2014 @ PPK
[ Time : 0.021s | 14 Queries | GZIP : Off ]

Торрент трекер RUTOR.IN, Не можете зайти на rutor.org? Какой новый адрес рутор? Какое зеркало рутор? Не работает rutor.org и зеркала? Тогда наш торрент специально для вас. Rutor.in неофициальное зеркало rutor. В случае если у Вас заблокирован rutor или вдруг Вы не можете на него зайти, то Вы без труда сможете скачать бесплатно и без рекламы последние новинки кино, игр, сериалов и прочего у нас, на Rutor.in. Не нужно использовать прокси, чтобы зайти на рутор, достаточно воспользоваться нашим ресурсом. Все новые фильмы, игры, сериалы, книги и музыка за 2013 и 2014 годы через торрент бесплатно. Скачивайте фильмы в хорошем качестве, игры для пк, xbox, playstation без регистрации. У нас вы найдете новые Зарубежные сериалы и Русские сериалы 2013, 2014, 2015 годов. Оставайтесь с нами, качайте любимые фильмы, игры, сериалы, книги и музыку.