img image001 image001 image001 image001 image001 image001 image001 image001 image001 image001 image001 image001 image001 image001 image001

Planets Sun Sun Sun
Статистика раздачи
Автор: Снежана | Размер: 1.58 ГБ | Добавлен: 24 июл 2013
Раздают: 9    Качают: 3
Скачать торрент
Скачать торрент
Описание торрента

СообщениеДобавлено: 24 июл 2013 



Информация о фильме
Название: Мигранты
Год выхода: 1991
Жанр: Драма
Режиссер: Валерий Приемыхов
В ролях: Оксана Арбузова, Андрей Андреев (III), Валерий Приемыхов, Нина Русланова, Екатерина Васильева, Денис Карасев, Алексей Жарков, Ирина Климова, Юлия Рогачкова, Даниил Спиваковский, Игорь Юраш, Татьяна Яковенко, Алевтина Добрынина, Вячеслав Ильин

О фильме:
В московском ресторане познакомились двое приезжих. Она приняла его за москвича, которым он не являлся, он ее - за проститутку. После того, как они побывали в милиции, куда попали в качестве бомжей, они сблизились, и их отношения переросли в любовь.

General
Complete name : Migranti.1991.XviD.SATRip.avi
Format : AVI
Format/Info : Audio Video Interleave
File size : 1.58 GiB
Duration : 1h 37mn 14s
Overall bit rate : 2 328 Kbps
Video #0
ID : 0
Format : MPEG-4 Visual
Format profile : Simple@L3
Format settings, BVOP : No
Format settings, QPel : No
Format settings, GMC : No warppoints
Format settings, Matrix : Default (H.263)
Codec ID : XVID
Codec ID/Hint : XviD
Duration : 1h 37mn 14s
Bit rate : 2 187 Kbps
Width : 720 pixels
Height : 512 pixels
Display aspect ratio : 1.406
Frame rate : 25.000 fps
Color space : YUV
Chroma subsampling : 4:2:0
Bit depth : 8 bits
Scan type : Progressive
Compression mode : Lossy
Bits/(Pixel*Frame) : 0.237
Stream size : 1.49 GiB (94%)
Writing library : XviD 1.2.1 (UTC 2008-12-04)
Audio #1
ID : 1
Format : MPEG Audio
Format version : Version 1
Format profile : Layer 3
Mode : Joint stereo
Mode extension : MS Stereo
Codec ID : 55
Codec ID/Hint : MP3
Duration : 1h 37mn 14s
Bit rate mode : Constant
Bit rate : 128 Kbps
Channel(s) : 2 channels
Sampling rate : 48.0 KHz
Compression mode : Lossy
Stream size : 89.0 MiB (5%)
Alignment : Aligned on interleaves
Interleave, duration : 24 ms (0.60 video frame)
Writing library : LAME3.98.2




Страна: СССР
Студия: киноконцерн "Мосфильм"
Продолжительность: 01:37:14
Язык: Русский

Файл
Кодек: XviD
Качество: SATRip
Видео: 720x512, 2187 kbps, 25 fps
Звук: MP3, 128кб/с, 2 канала

Семпл

, , , ,


Релиз от:



   Похожие торренты   Торрент   Размер 
В этой теме нет новых непрочитанных сообщений. Специальный корреспондент. Мигранты [эфир от 24.09] (2013) SATRip от РиперАМ

0 | 1

820.25 МБ

В этой теме нет новых непрочитанных сообщений. Финал НБА 1991 года Лос Анжелес Лейкерс против Чикаго Буллз . 3 матч серии / NBA Final 1991 (Chicago Bulls vs LA Lakers) (1991) TVRip

3 | 11

1.28 ГБ

В этой теме нет новых непрочитанных сообщений. Меченые (1991) SATRip

109 | 9

1.45 ГБ

В этой теме нет новых непрочитанных сообщений. Джокер (1991) SATRip

20 | 12

797.05 МБ

В этой теме нет новых непрочитанных сообщений. Дура (1991) SATRip

383 | 44

1.67 ГБ

В этой теме нет новых непрочитанных сообщений. Счастливые дни (1991) SATRip

91 | 3

1.37 ГБ

В этой теме нет новых непрочитанных сообщений. Дом на песке (1991) SATRip

22 | 7

1.13 ГБ




Вы не можете начинать темы
Вы не можете отвечать на сообщения
Вы не можете редактировать свои сообщения
Вы не можете удалять свои сообщения
Вы не можете добавлять вложения

Перейти:  
Для Мосгорсуда, Роскомнадзора и рекламодателей: mosgorsud-torrent[собачка]yandex.ru
 Вход
ppkBB3cker v.2 © 2008-2014 @ PPK
[ Time : 0.033s | 15 Queries | GZIP : Off ]

cron