img image001 image001 image001 image001 image001 image001 image001 image001 image001 image001 image001 image001 image001 image001 image001

Planets Sun Sun Sun
Статистика раздачи
Автор: Снежана | Размер: 1.45 ГБ | Добавлен: 24 июл 2013
Раздают: 46    Качают: 5
Скачать торрент
Скачать торрент
Описание торрента

СообщениеДобавлено: 24 июл 2013 

8 первых свиданий / 8 pervykh svidaniy (2012) BDRip
Релиз от HQ-ViDEO

«Не проспи свою любовь!»
Информация о фильме:
Оригинальное название: 8 первых свиданий
Год выхода: 2012
Жанр: Мелодрама, Комедия
Режиссёр: Дэвид Додсон / David Dodson, Александр Маляревский
В ролях: Оксана Акиньшина / (Вера), Владимир Зеленский / (Никита), Екатерина Варнава / (Илона), Денис Никифоров / (Костя), Олеся Железняк / (менеджер), Евгений Кошевой / (таксист), Сабина Ахмедова / (Карина), Виктор Васильев / (Леша), Мария Кравцова / (режиссер), Светлана Ходченкова / (пассажирка такси), Город 312 / (играют самих себя), Сосо Павлиашвили / (играет самого себя), Виктория Боня / (организатор свадьбы), Игорь Жижикин / (папа Коли), Мария Петровская / (подруга Илоны), Ильдар Аллабирдин / (охранник), Александр Маляревский / (продюсер), Борис Шевченко / (полковник), Наталья Иохвидова / (секретарша), Светлана Тина / (хозяйка поросенка), Ирина Лазарева / (женщина с попугаем), Елена Кондулайнен / (мама Веры), Александр Глинский / (курильщик), Андрей Щукин / (директор цирка), Сергей Барковский / (художник Абрамсон), Елена Муравьева / (работник ЗАГСа), Костя Наконечный / (мальчик Коля), Виктор Бабич / (новый охранник), Антон Батырев / (секретарь), Юрий Никулин / (врач-ветеринар), Константин Спиркин / (официант), Наталья Вихрян / (помощница продюсера)
Сюжет фильма:
Вера — телезвезда, ее жених Константин — профессиональный теннисист. Они собираются пожениться. Никита врач-ветеринар и красавица-хирург Илона также спешат оформить отношения. Но одно прекрасное утро разрушает все планы. После веселого вечера Вера просыпается в одной постели с Никитой. Решив, что это последствия слишком бурной вечеринки, молодые люди разъезжаются в разные стороны. Но следующим днем все повторяется — Никита и Вера снова вместе, хотя каждый хорошо помнит, как они засыпали дома — каждый у себя… Так происходит всю последующую неделю. Какие-то таинственные силы устраивают эти неожиданные «свидания», кто-то хочет разрушить их браки, а может быть просто доказать, что они созданы друг для друга?

Страна: Россия
Продолжительность: 01:26:33
Перевод: Не требуется
Субтитры: нет
Информация о файле:
Качество: BDRip
Файл: AVI
Кодек: XviD, build 65 codec
Видео: 720 x 304, 2.35:1; 24.000 fps; ~ 1944 kbps; 0.370 bit/pixel
Аудио : 48 kHz, AC3 Dolby Digital, 3/2 (L,C,R,l,r) + LFE ch, ~448.00 kbps avg
Размер: 1486 Mb (1/3 )


General
Format : AVI
Format/Info : Audio Video Interleave
File size : 1.45 GiB
Duration : 1h 26mn
Overall bit rate : 2 401 Kbps
Movie name : 8.Pervyh.Svidanii.2012.RUS.BDRip.XviD.AC3.-HQ-ViDEO
Director : AngelOfTrue
Writing application : VirtualDubMod 1.5.10.3 | www.virtualdub-fr.org || (build 2550/release)
Original source form/Name : Movie
Copyright : HQ-ViDEO
Comment : 21.04.2012
Video
ID : 0
Format : MPEG-4 Visual
Format profile : Advanced Simple@L5
Format settings, BVOP : 1
Format settings, QPel : No
Format settings, GMC : No warppoints
Format settings, Matrix : Custom
Codec ID : XVID
Codec ID/Hint : XviD
Duration : 1h 26mn
Bit rate : 1 944 Kbps
Width : 720 pixels
Height : 304 pixels
Display aspect ratio : 2.35:1
Frame rate : 24.000 fps
Color space : YUV
Chroma subsampling : 4:2:0
Bit depth : 8 bits
Scan type : Progressive
Compression mode : Lossy
Bits/(Pixel*Frame) : 0.370
Stream size : 1.18 GiB (81%)
Writing library : XviD 65
Audio
ID : 1
Format : AC-3
Format/Info : Audio Coding 3
Mode extension : CM (complete main)
Codec ID : 2000
Duration : 1h 26mn
Bit rate mode : Constant
Bit rate : 448 Kbps
Channel(s) : 6 channels
Channel positions : Front: L C R, Side: L R, LFE
Sampling rate : 48.0 KHz
Bit depth : 16 bits
Compression mode : Lossy
Stream size : 277 MiB (19%)
Alignment : Split accross interleaves
Interleave, duration : 42 ms (1.00 video frame)
Interleave, preload duration : 500 ms

Релиз:
Автор рипа: AngelOfTrue
Источник:
ПРИЯТНОГО ПРОСМОТРА!



   Похожие торренты   Торрент   Размер 
В этой теме нет новых непрочитанных сообщений. 8 первых свиданий (2012) BDRip-AVC

49 | 5

1.46 ГБ

В этой теме нет новых непрочитанных сообщений. 8 первых свиданий (2012) BDRip-AVC 720p

1189 | 34

2.81 ГБ

В этой теме нет новых непрочитанных сообщений. 8 первых свиданий (2012) BDRip от ivandubskoj | Лицензия

1291 | 56

700.14 МБ

В этой теме нет новых непрочитанных сообщений. 8 первых свиданий (2012) BDRip-AVC от HELLYWOOD | Лицензия

843 | 53

1.46 ГБ

В этой теме нет новых непрочитанных сообщений. 8 первых свиданий (2012) BDRip 1080р от Freeisland

380 | 18

4.38 ГБ

В этой теме нет новых непрочитанных сообщений. 8 первых свиданий (2012) BDRip от HQCLUB | Лицензия

1618 | 37

1.45 ГБ

В этой теме нет новых непрочитанных сообщений. 8 первых свиданий (2012) DVD9

24 | 11

4.85 ГБ




Вы не можете начинать темы
Вы не можете отвечать на сообщения
Вы не можете редактировать свои сообщения
Вы не можете удалять свои сообщения
Вы не можете добавлять вложения

Перейти:  
Для Мосгорсуда, Роскомнадзора и рекламодателей: mosgorsud-torrent[собачка]yandex.ru
 Вход
ppkBB3cker v.2 © 2008-2014 @ PPK
[ Time : 0.044s | 15 Queries | GZIP : Off ]

Торрент трекер RUTOR.IN, Не можете зайти на rutor.org? Какой новый адрес рутор? Какое зеркало рутор? Не работает rutor.org и зеркала? Тогда наш торрент специально для вас. Rutor.in неофициальное зеркало rutor. В случае если у Вас заблокирован rutor или вдруг Вы не можете на него зайти, то Вы без труда сможете скачать бесплатно и без рекламы последние новинки кино, игр, сериалов и прочего у нас, на Rutor.in. Не нужно использовать прокси, чтобы зайти на рутор, достаточно воспользоваться нашим ресурсом. Все новые фильмы, игры, сериалы, книги и музыка за 2013 и 2014 годы через торрент бесплатно. Скачивайте фильмы в хорошем качестве, игры для пк, xbox, playstation без регистрации. У нас вы найдете новые Зарубежные сериалы и Русские сериалы 2013, 2014, 2015 годов. Оставайтесь с нами, качайте любимые фильмы, игры, сериалы, книги и музыку.
cron