img image001 image001 image001 image001 image001 image001 image001 image001 image001 image001 image001 image001 image001 image001 image001

Planets Sun Sun Sun
Статистика раздачи
Автор: Снежана | Размер: 4.28 ГБ | Добавлен: 24 июл 2013
Раздают: 19    Качают: 2
Скачать торрент
Скачать торрент
Описание торрента

СообщениеДобавлено: 24 июл 2013 

#77

Информация о фильме
Название: Служебный роман
Год выхода: 1977
Жанр: Комедия, мелодрама
Режиссер: Эльдар Рязанов
В ролях: Алиса Фрейндлих, Андрей Мягков, Светлана Немоляева, Олег Басилашвили, Лия Ахеджакова, Людмила Иванова, Петр Щербаков, Нелли Пшенная, Надежда Репина, Виктор Филиппов, Георгий Бурков, Мария Виноградова, Александр Фатюшин, Эльдар Рязанов, Людмила Купина, Владимир Плотников, Зоя Исаева, Любовь Калюжная, Валентина Ушакова, Татьяна Игнатова, Велта Жигуре, Лидия Драновская, Инна Выходцева, Екатерина Воронина, Олеся Иванова, Вера Бурлакова, Ксения Бороздина

О фильме:
Анатолий Ефремович Новосельцев, рядовой служащий одного статистического управления, — человек робкий и застенчивый. Для него неплохо бы получить вакантное место зав. отделом, но он не знает как подступиться к этому делу. Старый приятель Самохвалов советует ему приударить за Людмилой Прокопьевной Калугиной, — сухарем в юбке и директором заведения…



PS. Этот рип(делался с несжатого блюрея) помещается на dvd болванку




Video
ID : 1
Format : AVC
Format/Info : Advanced Video Codec
Format profile : High@L4.1
Format settings, CABAC : Yes
Format settings, ReFrames : 5 frames
Codec ID : V_MPEG4/ISO/AVC
Duration : 2h 36mn
Bit rate : 3 463 Kbps
Width : 960 pixels
Height : 720 pixels
Display aspect ratio : 4:3
Frame rate : 23.976 fps
Color space : YUV
Chroma subsampling : 4:2:0
Bit depth : 8 bits
Scan type : Progressive
Bits/(Pixel*Frame) : 0.209
Stream size : 3.71 GiB (87%)
Writing library : x264 core 124 r2197 69a0443
Encoding settings : cabac=1 / ref=5 / deblock=1:-1:-1 / analyse=0x3:0x133 / me=umh / subme=10 / psy=1 / psy_rd=1.00:0.15 / mixed_ref=1 / me_range=24 / chroma_me=1 / trellis=2 / 8x8dct=1 / cqm=0 / deadzone=21,11 / fast_pskip=1 / chroma_qp_offset=-3 / threads=9 / sliced_threads=0 / nr=0 / decimate=1 / interlaced=0 / bluray_compat=0 / constrained_intra=0 / bframes=8 / b_pyramid=2 / b_adapt=2 / b_bias=0 / direct=3 / weightb=1 / open_gop=0 / weightp=2 / keyint=250 / keyint_min=23 / scenecut=40 / intra_refresh=0 / rc_lookahead=60 / rc=2pass / mbtree=1 / bitrate=3463 / ratetol=1.0 / qcomp=0.60 / qpmin=0 / qpmax=69 / qpstep=4 / cplxblur=20.0 / qblur=0.5 / ip_ratio=1.40 / aq=1:1.00
Default : Yes
Forced : No

Audio
ID : 2
Format : AC-3
Format/Info : Audio Coding 3
Mode extension : CM (complete main)
Codec ID : A_AC3
Duration : 2h 36mn
Bit rate mode : Constant
Bit rate : 448 Kbps
Channel(s) : 6 channels
Channel positions : Front: L C R, Side: L R, LFE
Sampling rate : 48.0 KHz
Bit depth : 16 bits
Compression mode : Lossy
Stream size : 502 MiB (11%)
Default : Yes
Forced : No



Страна: СССР
Студия: Мосфильм
Продолжительность: 02:36:40
Перевод: Оригинал

Файл
Кодек: h 264
Качество: BDRip 720p
Видео: MPEG-4 AVC, 3463 Кбит/с, 960x720, 23.976 кадр/с
Звук: Русский, AC3, 6 ch, 448 Кбит/с





   Похожие торренты   Торрент   Размер 
В этой теме нет новых непрочитанных сообщений. Служебный роман (1977) BDRip 720p

54 | 4

7 ГБ

В этой теме нет новых непрочитанных сообщений. Служебный роман (1977) BDRip 720p

30 | 8

4.67 ГБ

В этой теме нет новых непрочитанных сообщений. Служебный роман (1977) BDRip 720p от Youtracker

99 | 5

4.37 ГБ

В этой теме нет новых непрочитанных сообщений. Служебный роман (1977) BDRip-AVC

19 | 3

2.17 ГБ

В этой теме нет новых непрочитанных сообщений. Служебный роман (1977) BDRip

1197 | 51

1.46 ГБ

В этой теме нет новых непрочитанных сообщений. Служебный роман (1977) BDRip-AVC

11 | 3

3.78 ГБ

В этой теме нет новых непрочитанных сообщений. Служебный роман (1977) BDRip от MediaClub

353 | 28

2.9 ГБ




Вы не можете начинать темы
Вы не можете отвечать на сообщения
Вы не можете редактировать свои сообщения
Вы не можете удалять свои сообщения
Вы не можете добавлять вложения

Перейти:  
Для Мосгорсуда, Роскомнадзора и рекламодателей: mosgorsud-torrent[собачка]yandex.ru
 Вход
ppkBB3cker v.2 © 2008-2014 @ PPK
[ Time : 0.033s | 17 Queries | GZIP : Off ]

cron