img image001 image001 image001 image001 image001 image001 image001 image001 image001 image001 image001 image001 image001 image001 image001 image001

Planets Sun Sun Sun
Статистика раздачи
Автор: Снежана | Размер: 699.47 МБ | Добавлен: 24 июл 2013
Раздают: 6    Качают: 2
Скачать торрент
Скачать торрент
Описание торрента

СообщениеДобавлено: 24 июл 2013 

Шпион
(2012)
DVDRip-AVC [Hi10P] от FREEISLAND



Год выхода: 2012
Жанр: Триллер, детектив, приключения

Режиссер: Алексей Андрианов

В ролях:
Данила Козловский, Федор Бондарчук, Владимир Епифанцев, Сергей Газаров, Виктор Вержбицкий, Виктория Толстоганова, Анна Чиповская, Алексей Горбунов, Алексей Гаврилов, Екатерина Мельник

Описание:
Весна 1941 года. В центре Москвы разворачивается напряжённый поединок двух разведок. Цель тайной операции Гитлера — дезинформировать Сталина о планах нападения Германии на Советский Союз. Старший майор Октябрьский и лейтенант Дорин против гения фашистского шпионажа. Схватка на фоне большой истории, освещенной заревом грядущей войны.



Официальный сайт

Страна: Россия
Выпущено: Студия ТРИТЭ, Телеканал Россия
Продолжительность: 1 ч. 38 м. 53 с.
Перевод: Оригинал
Оригинальная разбивка на главы: сохранена

Примечание:
Бюджетный, качественный рипчик с обрезанными титрами в целях экономии битрейта.

Внимание!
Рип в High 10 Profile, в настоящее время не поддерживается большинством аппаратных проигрывателей.
Для корректного воспроизведения может потребоваться обновление ПО.
Владельцам несовместимого железа просьба не беспокоить, на трекере есть альтернативные релизы.

Качество: DVDRip-AVC Hi10P (SSIM: 0.9826337)
Исходник: DVD9
Контейнер: MKV
Видео кодек: x264 High10@L4.0
Аудио кодек: AC3
Видео: AVC at 795 Кбит/сек, 720 x 436 @ 1024 x 436 (2.349) at 25.000 fps
Аудио: AC-3 at 192 Кбит/сек, 2 каналов, 48,0 КГц
Субтитры: нет


Общее
Уникальный идентификатор : 202974943679601523399312927229172262013 (0x98B38D5CEEB114C9A52A02DFF618247D)
Полное имя : Шпион (2012) DVDRip-Hi10P by_F.HD.mkv
Формат : Matroska
Версия формата : Version 2
Размер файла : 699 Мбайт
Продолжительность : 1 ч. 38 м.
Общий поток : 989 Кбит/сек
Название фильма : релиз от FREEISLAND.ORG
Дата кодирования : UTC 2012-05-08 15:24:04
Программа кодирования : mkvmerge v5.5.0 ('Healer') built on Apr 6 2012 21:43:24
Библиотека кодирования : libebml v1.2.3 + libmatroska v1.3.0

Видео
Идентификатор : 1
Формат : AVC
Формат/Информация : Advanced Video Codec
Профиль формата : High 10@L4.0
Параметр CABAC формата : Да
Параметр ReFrames формата : 16 кадров
Идентификатор кодека : V_MPEG4/ISO/AVC
Продолжительность : 1 ч. 38 м.
Битрейт : 795 Кбит/сек
Ширина : 720 пикселей
Высота : 436 пикселей
Соотношение сторон : 2,35:1
Частота кадров : 25,000 кадров/сек
Цветовое пространство : YUV
Субдискретизация насыщенности : 4:2:0
Битовая глубина : 10 бит
Тип развёртки : Прогрессивная
Бит/(Пиксели*Кадры) : 0.101
Размер потока : 550 Мбайт (79%)
Библиотека кодирования : x264 core 124 r2197+666+27 2b69816 tMod [10-bit@all X86_64]
Настройки программы : cabac=1 / ref=16 / deblock=1:-1:-1 / analyse=0x3:0x133 / me=umh / subme=11 / psy=1 / fade_compensate=0.00 / psy_rd=1.00:0.00 / mixed_ref=1 / me_range=64 / chroma_me=1 / trellis=2 / 8x8dct=1 / cqm=0 / deadzone=21,11 / fast_pskip=0 / chroma_qp_offset=-2 / threads=12 / sliced_threads=0 / nr=0 / decimate=1 / interlaced=0 / bluray_compat=0 / constrained_intra=0 / fgo=0 / bframes=12 / b_pyramid=2 / b_adapt=2 / b_bias=0 / direct=3 / weightb=1 / open_gop=0 / weightp=2 / keyint=250 / keyint_min=25 / scenecut=40 / intra_refresh=0 / rc_lookahead=40 / rc=2pass / mbtree=0 / bitrate=795 / ratetol=1.0 / qcomp=1.00 / qpmin=0 / qpmax=48 / qpstep=4 / cplxblur=20.0 / qblur=0.5 / vbv_maxrate=50000 / vbv_bufsize=62500 / nal_hrd=none / ip_ratio=1.40 / pb_ratio=1.30 / aq=3:1.00
Default : Да
Forced : Нет
Основные цвета : BT.601-6 525, BT.1358 525, BT.1700 NTSC, SMPTE 170M
Характеристики трансфера : BT.601-6 525, BT.601-6 625, BT.1358 525, BT.1358 625, BT.1700 NTSC, SMPTE 170M
Коэффициенты матрицы : BT.601-6 525, BT.1358 525, BT.1700 NTSC, SMPTE 170M

Аудио
Идентификатор : 2
Формат : AC-3
Формат/Информация : Audio Coding 3
Расширение режима : CM (complete main)
Идентификатор кодека : A_AC3
Продолжительность : 1 ч. 38 м.
Вид битрейта : Постоянный
Битрейт : 192 Кбит/сек
Каналы : 2 канала
Расположение каналов : Front: L R
Частота : 48,0 КГц
Битовая глубина : 16 бит
Метод сжатия : С потерями
Размер потока : 136 Мбайт (19%)
Язык : Russian
Default : Да
Forced : Нет

Меню
00:00:00.000 : :01
00:05:21.560 : :02
00:09:44.240 : :03
00:13:07.840 : :04
00:16:48.960 : :05
00:26:26.720 : :06
00:34:45.280 : :07
00:39:55.000 : :08
00:52:25.960 : :09
01:06:20.160 : :10
01:16:29.840 : :11
01:35:18.520 : :12

















Релиз от:

Если у вас возникают вопросы типа:
-почему у меня есть звук и отсутствует изображение?
-почему у меня рассыпается картинка?
-почему у меня картинка фонит синевой или зеленью?
-зачем и кому всё это нужно?
и тому подобные, читаем FAQ.
ссылка на FAQ запрещена правилами.

По этому, гуглим на тему спойлера (Что такое 10-ти битное видео (High 10 Profile - Hi10P), и как его смотреть?).



   Похожие торренты   Торрент   Размер 
В этой теме нет новых непрочитанных сообщений. Университет монстров / Monsters University (2013) BDRip 1080p [Hi10P] от FREEISLAND

141 | 11

4.37 ГБ

В этой теме нет новых непрочитанных сообщений. Агент Вексилл / Bekushiru: 2077 Nihon sakoku (2007) BDRip 1080p [Hi10P] от FREEISLAND

13 | 11

4.37 ГБ

В этой теме нет новых непрочитанных сообщений. Гадкий я 2 + Мини-фильмы. Миньоны / Despicable Me 2 + Mini-Movies. Minions (2013) BDRip 1080p [Hi10P] от FREEISLAND

757 | 98

4.91 ГБ

В этой теме нет новых непрочитанных сообщений. Вспомнить всё / Total Recall (2012) BDRip-AVC [Hi10P] | Extended Cut

652 | 128

1.36 ГБ

В этой теме нет новых непрочитанных сообщений. Обитель зла: Возмездие / Resident Evil: Retribution (2012) BDRip-AVC [Hi10P] | D

57 | 0

2.04 ГБ

В этой теме нет новых непрочитанных сообщений. Сердца четырёх (1941) DVDRip-AVC Hi10P

48 | 13

3.4 ГБ

В этой теме нет новых непрочитанных сообщений. Хеллсинг (ОВА) / Hellsing Ultimate [OVA+Special] [01-10+3 из 10+3] (2006-2012) BDRip 720p [Hi10p] от UA MAX |P

1474 | 259

8.66 ГБ




Вы не можете начинать темы
Вы не можете отвечать на сообщения
Вы не можете редактировать свои сообщения
Вы не можете удалять свои сообщения
Вы не можете добавлять вложения

Перейти:  
 Вход
ppkBB3cker v.2 © 2008-2014 @ PPK
[ Time : 0.022s | 17 Queries | GZIP : Off ]

cron