img image001 image001 image001 image001 image001 image001 image001 image001 image001 image001 image001 image001 image001 image001 image001 image001

Planets Sun Sun Sun
Статистика раздачи
Автор: Снежана | Размер: 5.98 ГБ | Добавлен: 24 июл 2013
Раздают: 13    Качают: 4
Скачать торрент
Скачать торрент
Описание торрента

СообщениеДобавлено: 24 июл 2013 

#77

Информация о фильме
Название: Няньки
Год выхода: 2012
Жанр: комедия
Режиссер: Ашот Кещян
В ролях: Николай Наумов, Арарат Кещян, Людмила Артемьева, Аглая Шиловская, Лина Добророднова, Илья Костюков, Глеб Сердюков, Олеся Железняк, Дитер Брандекер, Майкл Бэрал

Валентина — жесткая, хладнокровная владелица крупной туристической фирмы, которой предстоит решение сложной задачи в стране, где женщину, независимо от профессионализма, не может ждать успех в бизнесе — Турции. На помощь она вызывает работников своего уральского филиала Диму и Мишу — безынициативных лодырей, по несчастливой случайности оказавшихся единственными сотрудниками мужского пола. Предполагаемый отпуск за границей оборачивается для безответственных весельчаков не только последним шансом доказать свою профпригодность и избежать позорного увольнения, но и представляет угрозу для здоровья и жизни: по роковому стечению обстоятельств Миша и Дима остаются один на один с тремя неуправляемыми детьми Валентины. А, как известно, беда не приходит одна, поэтому, когда приезжает мама Валентины якобы присмотреть за внуками, задачи для молодых людей усложняются появлением практически еще одного ребенка, который требует за собой не меньшего присмотра, чем реальные дети. Теперь друзьям придется разбираться и с детьми, и с бабушкой, и с немецкими конкурентами, и все это — в попытках не провалить судьбоносную сделку. Смогут ли наши герои справиться с заданием и завоевать расположение Валентины и ее детей?






Файл
Формат: DVD Video
Качество: DVD9 R5
Видео: MPEG2 Video 720x576 (16:9), 25.00fps, 8500 kbps
Аудио: Russian (Dolby AC3, 6 ch, 448) / (DTS, 5 ch, 755) / (Dolby AC3, 2 ch, 192)
Продолжительность: 01:29:59
Озвучивание: Оригинальное [лицензия]

Музыкальный клип; Смотрите на DVD; Фотогалерея; Создатели и исполнители
General
Complete name : E:Njanki.2012.DVD-9VIDEO_TSVTS_05_3.VOB
Format : MPEG-PS
File size : 1 024 MiB
Duration : 17mn 7s
Overall bit rate : 8 360 Kbps

Video
ID : 224 (0xE0)
Format : MPEG Video
Format version : Version 2
Format profile : Main@Main
Format settings, BVOP : Yes
Format settings, Matrix : Default
Duration : 17mn 7s
Bit rate mode : Variable
Bit rate : 6 633 Kbps
Nominal bit rate : 8 500 Kbps
Width : 720 pixels
Height : 576 pixels
Display aspect ratio : 16:9
Frame rate : 25.000 fps
Standard : PAL
Resolution : 8 bits
Colorimetry : 4:2:0
Scan type : Progressive
Bits/(Pixel*Frame) : 0.640
Stream size : 812 MiB (79%)

Audio #1
ID : 128 (0x80)
Format : AC-3
Format/Info : Audio Coding 3
Duration : 17mn 7s
Bit rate mode : Constant
Bit rate : 448 Kbps
Channel(s) : 6 channels
Channel positions : Front: L C R, Surround: L R, LFE
Sampling rate : 48.0 KHz
Video delay : -768ms
Stream size : 54.9 MiB (5%)

Audio #2
ID : 130 (0x82)
Format : AC-3
Format/Info : Audio Coding 3
Duration : 17mn 7s
Bit rate mode : Constant
Bit rate : 192 Kbps
Channel(s) : 2 channels
Channel positions : L R
Sampling rate : 48.0 KHz
Video delay : -704ms
Stream size : 23.5 MiB (2%)

Audio #3
ID : 137 (0x89)
Format : DTS
Format/Info : Digital Theater Systems
Duration : 17mn 7s
Bit rate mode : Constant
Bit rate : 755 Kbps
Channel(s) : 6 channels
Channel positions : Front: L C R, Surround: L R, LFE
Sampling rate : 48.0 KHz
Resolution : 24 bits
Video delay : -790ms
Stream size : 92.4 MiB (9%)







Релиз от:



   Похожие торренты   Торрент   Размер 
В этой теме нет новых непрочитанных сообщений. Три товарища [01-04 из 04] (2012) DVD9 R5 от New-Team | лицензия

1 | 2

6.57 ГБ

В этой теме нет новых непрочитанных сообщений. Дочь (2012) DVD9 R5 от New-Team | лицензия

36 | 4

6.98 ГБ

В этой теме нет новых непрочитанных сообщений. Белые волки [01-14 из 14] (2012) DVD9 от New-Team | Лицензия

113 | 34

7.9 ГБ

В этой теме нет новых непрочитанных сообщений. Вспоминая 1942 / Yi jiu si er (2012) DVD9 от New-Team | Лицензия

45 | 29

7.42 ГБ

В этой теме нет новых непрочитанных сообщений. Небесные жёны луговых мари (2012) DVD9 | P1 | Лицензия

17 | 7

6.12 ГБ

В этой теме нет новых непрочитанных сообщений. Родительский беспредел / Parental Guidance (2012) DVD9 | D | Лицензия

30 | 1

6.2 ГБ

В этой теме нет новых непрочитанных сообщений. Команда Мечты / Les seigneurs (2012) DVD9 от New-Team | Лицензия

31 | 16

3.98 ГБ




Вы не можете начинать темы
Вы не можете отвечать на сообщения
Вы не можете редактировать свои сообщения
Вы не можете удалять свои сообщения
Вы не можете добавлять вложения

Перейти:  
cron
 Вход
ppkBB3cker v.2 © 2008-2014 @ PPK
[ Time : 0.031s | 17 Queries | GZIP : Off ]

cron