img image001 image001 image001 image001 image001 image001 image001 image001 image001 image001 image001 image001 image001 image001 image001

Planets Sun Sun Sun
Статистика раздачи
Автор: Снежана | Размер: 4.97 ГБ | Добавлен: 24 июл 2013
Раздают: 7    Качают: 3
Скачать торрент
Скачать торрент
Описание торрента

СообщениеДобавлено: 24 июл 2013 

#77


Информация о фильме
Название: Ленинград
Оригинальное название: Attack on Leningrad
Год выхода: 2009
Жанр: драма, военный
Режиссер: Александр Буравский

В ролях: Мира Сорвино, Армин Мюллер-Шталь, Ольга Сутулова, Алена Стебунова, Михаил Ефремов, Александр Абдулов, Владимир Ильин, Луиза Мосендз, Александр Филиппенко, Сергей Колтаков, Дэвид Веррей, Кристиан Беркель, Александр Байер, Валентин Гафт, Кирилл Лавров, Гэбриел Бирн, Виктор Смирнов, Вадим Логинов, Марат Башаров, Жанна Костенко

О фильме:
Зима 1941-го. С неба безостановочно сыплются бомбы, превращая дома в руины, а выживших, оставшихся без крова мерзнущих людей душит голод. Гитлер убежден, что блокада превратит ленинградцев в стадо диких зверей, рвущих друг у друга куски пищи. Но ленинградцы остаются людьми. В фильме две героини: Нина Цветкова и Кейт Дэвис. Одна — ленинградка, милиционерша, «рабочая косточка», истовая комсомолка, дочь героя Гражданской, зарубленного в бою с белогвардейцами. А другая — дворянка, родившаяся в Петербурге, дочь белого генерала, эмигрантка, космополитка, журналистка, абсолютно не приспособленная к жизни — не говоря уже о немыслимых тяготах блокады. Они должны быть врагами, но жизнь рассудит иначе. Жизнь, за которую они отчаянно борются.

Официальный сайт:
Страна: Россия Великобритания,
Продолжительность: 01:50:22
Перевод: Не требуется (русский) + Субтитры на иностранную речь

Файл
Кодек: H.264
Качество: BDRip 720p (исходник Blu-ray 1080p - HDRoad )
Видео: MPEG4/AVC, 1280x544 (2,35:1) , 23.976 fps, 5409Kbps
Звук:
Russian: AC3, 640 Kbps, 48.0 KHz, 6 ch
English: AC3, 348 Kbps, 48.0 KHz, 2 ch
Субтитры: русские , английские(srt) ( без хабсабов)


Общее
Уникальный идентификатор : 211427822171761678259271590465097828757 (0x9F0F8472FF466E58998FACFED3760995)
Полное имя : E:торрентAttack on Leningrad(2009)720p .mkv
Формат : Matroska
Размер файла : 4,97 Гбайт
Продолжительность : 1 ч. 50 м.
Общий поток : 6432 Кбит/сек
Дата кодирования : UTC 2012-05-16 11:10:18
Программа кодирования : mkvmerge v5.4.0 ('Piper') built on Mar 10 2012 13:34:39
Библиотека кодирования : libebml v1.2.3 + libmatroska v1.3.0

Видео
Идентификатор : 1
Формат : AVC
Формат/Информация : Advanced Video Codec
Профиль формата : High@L4.1
Параметр CABAC формата : Да
Параметр ReFrames формата : 9 кадров
Идентификатор кодека : V_MPEG4/ISO/AVC
Продолжительность : 1 ч. 50 м.
Битрейт : 5409 Кбит/сек
Ширина : 1280 пикс.
Высота : 544 пикс.
Соотношение сторон : 2,35:1
Частота кадров : 23,976 кадр/сек
Цветовое пространство : YUV
Подвыборка цветности : 4:2:0
Битовая глубина : 8 бит
Тип развёртки : Прогрессивная
Бит/(Пиксели*Кадры) : 0.324
Размер потока : 4,08 Гбайт (82%)
Библиотека кодирования : x264 core 122 r2184 5c85e0a
Настройки программы : cabac=1 / ref=9 / deblock=1:-3:-3 / analyse=0x3:0x113 / me=umh / subme=10 / psy=1 / psy_rd=0.90:0.00 / mixed_ref=1 / me_range=48 / chroma_me=1 / trellis=2 / 8x8dct=1 / cqm=0 / deadzone=21,11 / fast_pskip=0 / chroma_qp_offset=-2 / threads=6 / sliced_threads=0 / nr=0 / decimate=1 / interlaced=0 / bluray_compat=0 / constrained_intra=0 / bframes=8 / b_pyramid=2 / b_adapt=2 / b_bias=0 / direct=3 / weightb=1 / open_gop=0 / weightp=2 / keyint=240 / keyint_min=23 / scenecut=40 / intra_refresh=0 / rc=2pass / mbtree=0 / bitrate=5409 / ratetol=1.0 / qcomp=0.70 / qpmin=0 / qpmax=69 / qpstep=4 / cplxblur=20.0 / qblur=0.5 / ip_ratio=1.40 / pb_ratio=1.30 / aq=2:0.90
Язык : English
Основные цвета : BT.709-5, BT.1361, IEC 61966-2-4, SMPTE RP177
Характеристики трансфера : BT.709-5, BT.1361
Коэффициенты матрицы : BT.709-5, BT.1361, IEC 61966-2-4 709, SMPTE RP177

Аудио #1
Идентификатор : 2
Формат : AC-3
Формат/Информация : Audio Coding 3
Расширение режима : CM (complete main)
Идентификатор кодека : A_AC3
Продолжительность : 1 ч. 50 м.
Вид битрейта : Постоянный
Битрейт : 640 Кбит/сек
Каналы : 6 каналов
Расположение каналов : Front: L C R, Side: L R, LFE
Частота : 48,0 КГц
Битовая глубина : 16 бит
Метод сжатия : С потерями
Размер потока : 507 Мбайт (10%)
Язык : Russian

Аудио #2
Идентификатор : 3
Формат : AC-3
Формат/Информация : Audio Coding 3
Расширение режима : CM (complete main)
Идентификатор кодека : A_AC3
Продолжительность : 1 ч. 50 м.
Вид битрейта : Постоянный
Битрейт : 384 Кбит/сек
Каналы : 2 канала
Расположение каналов : Front: L R
Частота : 48,0 КГц
Битовая глубина : 16 бит
Метод сжатия : С потерями
Размер потока : 304 Мбайт (6%)
Язык : English

Текст #1
Идентификатор : 4
Формат : UTF-8
Идентификатор кодека : S_TEXT/UTF8
Идентификатор кодека/Информация : UTF-8 Plain Text
Язык : Russian

Текст #2
Идентификатор : 5
Формат : UTF-8
Идентификатор кодека : S_TEXT/UTF8
Идентификатор кодека/Информация : UTF-8 Plain Text
Язык : English

Меню
00:00:00.000 : en:Chapter 01
00:07:11.139 : en:Chapter 02
00:10:56.030 : en:Chapter 03
00:14:54.268 : en:Chapter 04
00:17:59.328 : en:Chapter 05
00:22:35.687 : en:Chapter 06
00:27:10.420 : en:Chapter 07
00:32:29.906 : en:Chapter 08
00:38:32.768 : en:Chapter 09
00:44:41.053 : en:Chapter 10
00:49:32.552 : en:Chapter 11
00:56:12.410 : en:Chapter 12
01:01:33.439 : en:Chapter 13
01:06:15.054 : en:Chapter 14
01:12:31.096 : en:Chapter 15
01:17:29.728 : en:Chapter 16
01:23:02.727 : en:Chapter 17
01:28:32.557 : en:Chapter 18
01:37:36.684 : en:Chapter 19
01:44:57.833 : en:Chapter 20
01:50:42.093 : en:Chapter 21






Релиз от:



   Похожие торренты   Торрент   Размер 
В этой теме нет новых непрочитанных сообщений. Ленинград / Attack on Leningrad (2009) BDRip от FREEISLAND

6 | 4

703.16 МБ

В этой теме нет новых непрочитанных сообщений. Ленинград / Attack on Leningrad (2009) BDRip 1080p от FREEISLAND

14 | 3

4.37 ГБ

В этой теме нет новых непрочитанных сообщений. Ленинград / Attack on Leningrad (2009) BDRip от LAMPO4KA

2 | 3

2.08 ГБ

В этой теме нет новых непрочитанных сообщений. Ленинград / Attack On Leningrad (2007) BDRip-AVC от ExKinoRay

63 | 5

2.19 ГБ

В этой теме нет новых непрочитанных сообщений. Ленинград: Мужчина, который поёт - Leningrad: Der mann der singt (2009) DVD5

16 | 3

4.15 ГБ

В этой теме нет новых непрочитанных сообщений. Ленинград: Мужчина, который поёт / Leningrad: Der mann der singt (2009) DVDRip | КПК от Generalfilm

2 | 4

335.6 МБ

В этой теме нет новых непрочитанных сообщений. Ленинград: Мужчина, который поёт - Leningrad: Der mann der singt (2009) DVDRip от olegek70

61 | 11

2.1 ГБ




Вы не можете начинать темы
Вы не можете отвечать на сообщения
Вы не можете редактировать свои сообщения
Вы не можете удалять свои сообщения
Вы не можете добавлять вложения

Перейти:  
Для Мосгорсуда, Роскомнадзора и рекламодателей: mosgorsud-torrent[собачка]yandex.ru
 Вход
ppkBB3cker v.2 © 2008-2014 @ PPK
[ Time : 0.056s | 15 Queries | GZIP : Off ]

cron