img image001 image001 image001 image001 image001 image001 image001 image001 image001 image001 image001 image001 image001 image001 image001

Planets Sun Sun Sun
Статистика раздачи
Автор: Снежана | Размер: 4.35 ГБ | Добавлен: 24 июл 2013
Раздают: 0    Качают: 2
Скачать торрент
Скачать торрент
Описание торрента

СообщениеДобавлено: 24 июл 2013 

#77
Название: Свидание
Год выпуска: 2012
Страна: Россия
Жанр: комедия
Продолжительность: 01:23:32
Перевод: Не требуется

Режиссер: Юсуп Бахшиев
Сценарий: Юсуп Бахшиев
Продюсер: Юсуп Бахшиев, Сергей Грибков, Елена Логинова
Оператор: Олег Лукичёв
В ролях: Владимир Кристовский, Екатерина Климова, Сергей Бадюк, Алёна Бабенко, Константин Мурзенко, Андрей Кайков, Григорий Сиятвинда, Нелли Неведина, Ольга Карпович, Геннадий Венгеров

Бюджет: $3 000 000

Описание: Молодой, неженатый, преуспевающий хирург Дмитрий Горин по совету сестры назначает свидание ее подруге - привлекательной учительнице Ане Светловой. Прекрасное создание, попав под действие алкоголя, на деловом обеде, столь важном для Дмитрия, теряет над собой контроль, и торжественное мероприятие превращается в кошмар.
В довершение ко всему преследуемый похожим на Терминатора поклонником Ани, Дима остается без работы, любимого мотоцикла и ему грозит тюремное заключение. Начавшись столь невинно, свидание превращается в бесконечную череду комичных ситуаций, погонь и драк, что, впрочем, не помешает возникшим чувствам перерасти в настоящую любовь.



Релиз:

Качество: DVD5 (сжатый)
Формат: DVD Video
Видео: MPEG2; PAL 16:9 (720x576)
Аудио: Dolby AC3, 6 ch, 448 Kbps Russian
Субтитры: нет


Дополнительная информация :
Исходник : DVD9 (4.87 Гб) [лицензия, PAL 16:9]
Убрано : часть анонсов
Сжатие фильма : нет

DVDRemakePro
Photoshop
MuxMan
Работоспособность проверена на софтовом плеере Windows Media и бытовом LG
Title: Svidanie_2012_DVD5.[R.G.Daredevil]
Size: 4.35 Gb ( 4 558 286,00 KBytes ) - DVD-5
Enabled regions: 1, 2, 3, 4, 5, 6, 7, 8

VTS_01 :
Play Length: 00:00:15
Video: PAL 4:3 (720x576) VBR
Audio:
Not specified (Dolby AC3, 2 ch)

VTS_02 :
Play Length: 00:00:08
Video: PAL 16:9 (720x576) VBR, Auto Letterboxed
Audio:
Not specified (Dolby AC3, 2 ch)

VTS_03 :
Play Length: 01:23:32
Video: PAL 16:9 (720x576) VBR, Auto Letterboxed
Audio:
Russian (Dolby AC3, 6 ch)

VTS_04 :
Play Length: 00:01:34
Video: PAL 16:9 (720x576) VBR, Auto Letterboxed
Audio:
Not specified (Dolby AC3, 2 ch)

VTS_05 :
Play Length: 00:00:00
Video: PAL 16:9 (720x576) VBR, Auto Letterboxed
Audio:
Not specified (Dolby AC3, 2 ch)

VTS_06 :
Play Length: 00:00:00
Video: PAL 16:9 (720x576) VBR, Auto Letterboxed
Audio:
Not specified (Dolby AC3, 2 ch)

VTS_07 :
Play Length: 00:00:00
Video: PAL 16:9 (720x576) VBR, Auto Letterboxed
Audio:
Not specified (Dolby AC3, 2 ch)

VTS_08 :
Play Length: 00:00:00
Video: PAL 16:9 (720x576) VBR, Auto Letterboxed
Audio:
Not specified (Dolby AC3, 2 ch)

VTS_09 :
Play Length: 00:00:00
Video: PAL 16:9 (720x576) VBR, Auto Letterboxed
Audio:
Not specified (Dolby AC3, 2 ch)

VTS_10 :
Play Length: 00:01:31
Video: PAL 16:9 (720x576) VBR, Auto Letterboxed
Audio:
Not specified (Dolby AC3, 2 ch)

VTS_11 :
Play Length: 00:00:00
Video: PAL 16:9 (720x576) VBR, Auto Letterboxed
Audio:
Not specified (Dolby AC3, 2 ch)

VTS_12 :
Play Length: 00:02:31
Video: PAL 16:9 (720x576) VBR, Auto Letterboxed
Audio:
Not specified (Dolby AC3, 2 ch)

VTS_13 :
Play Length: 00:02:00
Video: PAL 16:9 (720x576) VBR, Auto Letterboxed
Audio:
Not specified (Dolby AC3, 2 ch)
Формат : MPEG-PS
Размер файла : 1024 Мбайт
Продолжительность : 20 м.
Режим общего битрейта : Переменный
Общий поток : 6925 Кбит/сек

Видео
Идентификатор : 224 (0xE0)
Формат : MPEG Video
Версия формата : Version 2
Профиль формата : Main@Main
Параметр BVOP формата : Да
Параметр матрицы формата : По умолчанию
Параметр GOP формата : M=3, N=12
Продолжительность : 20 м.
Вид битрейта : Переменный
Битрейт : 6340 Кбит/сек
Максимальный битрейт : 8200 Кбит/сек
Ширина : 720 пикселей
Высота : 576 пикселей
Соотношение сторон : 16:9
Частота кадров : 25,000 кадров/сек
Стандарт вещания : PAL
Цветовое пространство : YUV
Субдискретизация насыщенности : 4:2:0
Битовая глубина : 8 бит
Тип развёртки : Прогрессивная
Метод сжатия : С потерями
Бит/(Пиксели*Кадры) : 0.611
Размер потока : 937 Мбайт (92%)

Аудио
Идентификатор : 189 (0xBD)-128 (0x80)
Формат : AC-3
Формат/Информация : Audio Coding 3
Расширение режима : CM (complete main)
Режим смешивания : DVD-Video
Продолжительность : 20 м.
Вид битрейта : Постоянный
Битрейт : 448 Кбит/сек
Каналы : 6 каналов
Расположение каналов : Front: L C R, Side: L R, LFE
Частота : 48,0 КГц
Битовая глубина : 16 бит
Метод сжатия : С потерями
Размер потока : 66,2 Мбайт (6%)

Меню













   Похожие торренты   Торрент   Размер 
В этой теме нет новых непрочитанных сообщений. Таинственное свидание / Mystery Date (1991) DVD5 от NovaLan

0 | 1

4.35 ГБ

В этой теме нет новых непрочитанных сообщений. Безумное свидание / Date Night (2010) DVD5 by Allep | Cжатый

0 | 2

4.38 ГБ

В этой теме нет новых непрочитанных сообщений. Свидание в Бре / Свидание в Брэ / Rendez-vous à Bray (1971) DVDRip от pro100shara

142 | 132

1.58 ГБ

В этой теме нет новых непрочитанных сообщений. Свидание со звездой / Выиграй свидание с Тедом Хамильтоном / Win a Date with Tad Hamilton (2004) HDTVRip-AVC от NovaLan

44 | 13

2.2 ГБ

В этой теме нет новых непрочитанных сообщений. Свидание (2012) Blu-Ray | Лицензия

1 | 2

20.46 ГБ

В этой теме нет новых непрочитанных сообщений. Свидание (2012) BDRip-AVC от R.G. AVI | AVC | Лицензия

14 | 3

1.46 ГБ

В этой теме нет новых непрочитанных сообщений. Свидание (2012) DVDRip-AVC | Лицензия

10 | 2

1.37 ГБ




Вы не можете начинать темы
Вы не можете отвечать на сообщения
Вы не можете редактировать свои сообщения
Вы не можете удалять свои сообщения
Вы не можете добавлять вложения

Перейти:  
Для Мосгорсуда, Роскомнадзора и рекламодателей: mosgorsud-torrent[собачка]yandex.ru
 Вход
ppkBB3cker v.2 © 2008-2014 @ PPK
[ Time : 0.044s | 14 Queries | GZIP : Off ]

Торрент трекер RUTOR.IN, Не можете зайти на rutor.org? Какой новый адрес рутор? Какое зеркало рутор? Не работает rutor.org и зеркала? Тогда наш торрент специально для вас. Rutor.in неофициальное зеркало rutor. В случае если у Вас заблокирован rutor или вдруг Вы не можете на него зайти, то Вы без труда сможете скачать бесплатно и без рекламы последние новинки кино, игр, сериалов и прочего у нас, на Rutor.in. Не нужно использовать прокси, чтобы зайти на рутор, достаточно воспользоваться нашим ресурсом. Все новые фильмы, игры, сериалы, книги и музыка за 2013 и 2014 годы через торрент бесплатно. Скачивайте фильмы в хорошем качестве, игры для пк, xbox, playstation без регистрации. У нас вы найдете новые Зарубежные сериалы и Русские сериалы 2013, 2014, 2015 годов. Оставайтесь с нами, качайте любимые фильмы, игры, сериалы, книги и музыку.