img image001 image001 image001 image001 image001 image001 image001 image001 image001 image001 image001 image001 image001 image001 image001

Planets Sun Sun Sun
Статистика раздачи
Автор: Снежана | Размер: 3.96 ГБ | Добавлен: 24 июл 2013
Раздают: 0    Качают: 2
Скачать торрент
Скачать торрент
Описание торрента

СообщениеДобавлено: 24 июл 2013 

#77

Информация о фильме
Название: Дом ветра
Оригинальное название: Дом ветра
Год выхода: 2011
Жанр: драма
Режиссер: Вячеслав Златопольский
В ролях: Полина Кутепова, Дэник Неверов, Валерий Баринов, Александр Ильин, Елена Морозова, Алексей Завьялов

О фильме: Таисия Левшина, дворничиха детской инфекционной больницы, узнает, что ее сын, пропавший без вести на южной границе десять лет назад, на самом деле погиб. И, чтобы заполнить болезненную пустоту в душе, Тая забирает, фактически крадет из больницы семилетнего мальчика-азиата Тимура - Тёму, который по диагнозу и всем медицинским показаниям обречен на скорый уход...



Выпущено: Россия / Третье тысячилетие
Продолжительность: 01:42:39
Озвучивание: Оригинальное [лицензия]

Файл
Формат: DVD-Video
Качество: DVD5
Видео: PAL 16:9 (720x576(0.497)) MPEG Video, 25,000 кадр/сек, 5151 Кбит/сек
Аудио: Russian (Dolby AC3, 2 ch) 192 Кбит/сек, 48,0 КГц
Размер: 3.96 GB
Скачать: Сэмпл
Title:
Size: 3.96 Gb ( 4 152 734 KBytes ) - DVD-5
Enabled regions: 1, 2, 3, 4, 5, 6, 7, 8

VTS_01 :
Play Length: 01:42:39
Video: PAL 16:9 (720x576) VBR, Auto Pan&Scan
Audio:
Russian (Dolby AC3, 2 ch)

VTS_02 :
Play Length: 00:00:08
Video: PAL 16:9 (720x576) VBR, Auto Pan&Scan

Menu Video:
PAL 4:3 (720x576) VBR
Auto Pan&Scan, Auto Letterboxed
Menu Russian Language Unit :
Root Menu
Chapter (PTT) Menu

Общее
Полное имя : J:Новинки 2012Dom.Vetra.2011.DVD5VIDEO_TSVTS_01_1.VOB
Формат : MPEG-PS
Размер файла : 1024 Мбайт
Продолжительность : 26 м.
Режим общего битрейта : Переменный
Общий поток : 5451 Кбит/сек

Видео
Идентификатор : 224 (0xE0)
Формат : MPEG Video
Версия формата : Version 2
Профиль формата : Main@Main
Параметр BVOP формата : Да
Параметр матрицы формата : Выборочная
Параметр GOP формата : M=3, N=12
Продолжительность : 26 м.
Вид битрейта : Переменный
Битрейт : 5151 Кбит/сек
Максимальный битрейт : 7500 Кбит/сек
Ширина : 720 пикселей
Высота : 576 пикселей
Соотношение сторон : 16:9
Частота кадров : 25,000 кадров/сек
Стандарт вещания : PAL
Цветовое пространство : YUV
Субдискретизация насыщенности : 4:2:0
Битовая глубина : 8 бит
Тип развёртки : Прогрессивная
Метод сжатия : С потерями
Бит/(Пиксели*Кадры) : 0.497
Размер потока : 968 Мбайт (94%)
Основные цвета : BT.470-2 System B, BT.470-2 System G
Характеристики трансфера : BT.470-2 System B, BT.470-2 System G
Коэффициенты матрицы : SMPTE 170M

Аудио
Идентификатор : 189 (0xBD)-128 (0x80)
Формат : AC-3
Формат/Информация : Audio Coding 3
Расширение режима : CM (complete main)
Параметр Endianness формата : Big
Режим смешивания : DVD-Video
Продолжительность : 26 м.
Вид битрейта : Постоянный
Битрейт : 192 Кбит/сек
Каналы : 2 канала
Расположение каналов : Front: L R
Частота : 48,0 КГц
Битовая глубина : 16 бит
Метод сжатия : С потерями
Размер потока : 36,1 Мбайт (4%)


Скриншоты меню

Скриншоты





   Похожие торренты   Торрент   Размер 
В этой теме нет новых непрочитанных сообщений. Дом ветра (2011) DVDRip | Лицензия

2 | 3

699.26 МБ

В этой теме нет новых непрочитанных сообщений. Дом ветра (2011) DVDRip | Лицензия

40 | 7

1.37 ГБ

В этой теме нет новых непрочитанных сообщений. Дом ветра (2011) SATRip

15 | 2

1.32 ГБ

В этой теме нет новых непрочитанных сообщений. Дом ветра (2011) DVDRip | КПК от Generalfilm

0 | 2

352.44 МБ

В этой теме нет новых непрочитанных сообщений. Бабочка ветра / Зимняя бабочка / Winter Butterfly (2011) DVDRip

0 | 2

1.44 ГБ

В этой теме нет новых непрочитанных сообщений. 11-11-11 / 11-11-11 (2011) DVD5 | Лицензия

2 | 1

3.82 ГБ

В этой теме нет новых непрочитанных сообщений. Отставник 3 (2011) DVD5 | Лицензия

26 | 7

4.29 ГБ




Вы не можете начинать темы
Вы не можете отвечать на сообщения
Вы не можете редактировать свои сообщения
Вы не можете удалять свои сообщения
Вы не можете добавлять вложения

Перейти:  
Для Мосгорсуда, Роскомнадзора и рекламодателей: mosgorsud-torrent[собачка]yandex.ru
 Вход
ppkBB3cker v.2 © 2008-2014 @ PPK
[ Time : 0.067s | 14 Queries | GZIP : Off ]

Торрент трекер RUTOR.IN, Не можете зайти на rutor.org? Какой новый адрес рутор? Какое зеркало рутор? Не работает rutor.org и зеркала? Тогда наш торрент специально для вас. Rutor.in неофициальное зеркало rutor. В случае если у Вас заблокирован rutor или вдруг Вы не можете на него зайти, то Вы без труда сможете скачать бесплатно и без рекламы последние новинки кино, игр, сериалов и прочего у нас, на Rutor.in. Не нужно использовать прокси, чтобы зайти на рутор, достаточно воспользоваться нашим ресурсом. Все новые фильмы, игры, сериалы, книги и музыка за 2013 и 2014 годы через торрент бесплатно. Скачивайте фильмы в хорошем качестве, игры для пк, xbox, playstation без регистрации. У нас вы найдете новые Зарубежные сериалы и Русские сериалы 2013, 2014, 2015 годов. Оставайтесь с нами, качайте любимые фильмы, игры, сериалы, книги и музыку.