img image001 image001 image001 image001 image001 image001 image001 image001 image001 image001 image001 image001 image001 image001 image001

Planets Sun Sun Sun
Статистика раздачи
Автор: Снежана | Размер: 4.37 ГБ | Добавлен: 24 июл 2013
Раздают: 308    Качают: 2
Скачать торрент
Скачать торрент
Описание торрента

СообщениеДобавлено: 24 июл 2013 

#77
Название: Белый тигр
Год выпуска: 2012
Страна: Россия
Жанр: военный
Продолжительность: 01:44:06
Перевод: Не требуется

Режиссер: Карен Шахназаров
Сценарий: Александр Бородянский, Карен Шахназаров, Илья Бояшов
Продюсер: Карен Шахназаров, Галина Шадур
Оператор: Александр Кузнецов
Композитор: Юрий Потеенко, Константин Шевелев
В ролях: Виталий Кищенко, Алексей Вертков, Владимир Ильин, Александр Вахов, Виталий Дорджиев, Валерий Гришко, Кристиан Редль, Карл Кранцковски, Леонид Орлов, Дмитрий Быковский-Ромашов

Описание: Вторая Мировая война подходит к концу. Тяжелые затяжные бои изматывают обе стороны. Но чем увереннее наступают советские войска, тем чаще на полях сражений появляется огромным неуязвимый немецкий танк «Белый Тигр».
Внезапно возникает он в дыму сражений, безжалостно расстреливает своих противников и неожиданно исчезает. Советское командование решает для борьбы с «Белым Тигром» создать особый танк - специальную модель Т-34.



Релиз:

Качество: DVD5 (сжатый)
Формат: DVD Video
Видео: MPEG2; PAL 16:9 (720x576)
Аудио: Dolby AC3, 6 ch, 448 Kbps Russian
Субтитры: нет


Дополнительная информация :
Исходник : DVD9 (7.47 Гб) [лицензия, PAL 16:9]
Убрано : допы, реклама, заставки, предупреждения, Russian (Dolby AC3, 2 ch)
Сжатие фильма : нет

DVDRemakePro
Photoshop
MuxMan
Работоспособность проверена на софтовом плеере Windows Media и бытовом LG
Title: Beliy.Tigr_2012_DVD5.[R.G.Daredevil]
Size: 4.37 Gb ( 4 584 192,00 KBytes ) - DVD-5
Enabled regions: 1, 2, 3, 4, 5, 6, 7, 8

VTS_01 :
Play Length: 00:00:00
Video: PAL 4:3 (720x576) VBR
Audio:
Russian (Dolby AC3, 2 ch)

VTS_02 :
Play Length: 01:44:06
Video: PAL 16:9 (720x576) VBR, Auto Letterboxed
Audio:
Russian (Dolby AC3, 6 ch)

VTS_03 :
Play Length: 00:00:03
Video: PAL 16:9 (720x576) VBR, Auto Letterboxed
Audio:
Russian (Dolby AC3, 2 ch)

VTS_04 :
Play Length: 00:00:17
Video: PAL 16:9 (720x576) VBR, Auto Letterboxed
Audio:
Russian (Dolby AC3, 2 ch)

VTS_05 :
Play Length: 00:00:00
Video: PAL 16:9 (720x576) VBR, Auto Letterboxed
Audio:
Russian (Dolby AC3, 6 ch)

VTS_06 :
Play Length: 00:00:01
Video: PAL 16:9 (720x576) VBR, Auto Letterboxed
Audio:
Russian (Dolby AC3, 2 ch)
Формат : MPEG-PS
Размер файла : 1024 Мбайт
Продолжительность : 23 м.
Режим общего битрейта : Переменный
Общий поток : 5969 Кбит/сек

Видео
Идентификатор : 224 (0xE0)
Формат : MPEG Video
Версия формата : Version 2
Профиль формата : Main@Main
Параметр BVOP формата : Да
Параметр матрицы формата : По умолчанию
Параметр GOP формата : M=3, N=12
Продолжительность : 23 м.
Вид битрейта : Переменный
Битрейт : 5402 Кбит/сек
Максимальный битрейт : 6000 Кбит/сек
Ширина : 720 пикселей
Высота : 576 пикселей
Соотношение сторон : 16:9
Частота кадров : 25,000 кадров/сек
Стандарт вещания : PAL
Цветовое пространство : YUV
Субдискретизация насыщенности : 4:2:0
Битовая глубина : 8 бит
Тип развёртки : Чересстрочная
Порядок развёртки : Верхнее поле первое
Метод сжатия : С потерями
Бит/(Пиксели*Кадры) : 0.521
Размер потока : 927 Мбайт (91%)

Аудио
Идентификатор : 189 (0xBD)-128 (0x80)
Формат : AC-3
Формат/Информация : Audio Coding 3
Расширение режима : CM (complete main)
Режим смешивания : DVD-Video
Продолжительность : 23 м.
Вид битрейта : Постоянный
Битрейт : 448 Кбит/сек
Каналы : 6 каналов
Расположение каналов : Front: L C R, Side: L R, LFE
Частота : 48,0 КГц
Битовая глубина : 16 бит
Метод сжатия : С потерями
Задержка видео : -80 мс.
Размер потока : 76,8 Мбайт (8%)

Меню







   Похожие торренты   Торрент   Размер 
В этой теме нет новых непрочитанных сообщений. Белый тигр (2012) BDRemux

14 | 6

18.1 ГБ

В этой теме нет новых непрочитанных сообщений. Белый тигр (2012) DVD9 | Лицензия

74 | 12

7.47 ГБ

В этой теме нет новых непрочитанных сообщений. Белый тигр (2012) BDRip 1080p

183 | 18

5.76 ГБ

В этой теме нет новых непрочитанных сообщений. Белый тигр (2012) BDRip от ENGINEER

235 | 16

1.46 ГБ

В этой теме нет новых непрочитанных сообщений. Белый тигр (2012) BDRip от MediaClub

128 | 24

748.49 МБ

В этой теме нет новых непрочитанных сообщений. Белый тигр (2012) DVDRip | Лицензия

58 | 5

697.83 МБ

В этой теме нет новых непрочитанных сообщений. Белый тигр (2012) DVDRip | КПК от Generalfilm

14 | 3

358.63 МБ




Вы не можете начинать темы
Вы не можете отвечать на сообщения
Вы не можете редактировать свои сообщения
Вы не можете удалять свои сообщения
Вы не можете добавлять вложения

Перейти:  
Для Мосгорсуда, Роскомнадзора и рекламодателей: mosgorsud-torrent[собачка]yandex.ru
cron
 Вход
ppkBB3cker v.2 © 2008-2014 @ PPK
[ Time : 0.031s | 14 Queries | GZIP : Off ]

Торрент трекер RUTOR.IN, Не можете зайти на rutor.org? Какой новый адрес рутор? Какое зеркало рутор? Не работает rutor.org и зеркала? Тогда наш торрент специально для вас. Rutor.in неофициальное зеркало rutor. В случае если у Вас заблокирован rutor или вдруг Вы не можете на него зайти, то Вы без труда сможете скачать бесплатно и без рекламы последние новинки кино, игр, сериалов и прочего у нас, на Rutor.in. Не нужно использовать прокси, чтобы зайти на рутор, достаточно воспользоваться нашим ресурсом. Все новые фильмы, игры, сериалы, книги и музыка за 2013 и 2014 годы через торрент бесплатно. Скачивайте фильмы в хорошем качестве, игры для пк, xbox, playstation без регистрации. У нас вы найдете новые Зарубежные сериалы и Русские сериалы 2013, 2014, 2015 годов. Оставайтесь с нами, качайте любимые фильмы, игры, сериалы, книги и музыку.