img image001 image001 image001 image001 image001 image001 image001 image001 image001 image001 image001 image001 image001 image001 image001

Planets Sun Sun Sun
Статистика раздачи
Автор: Снежана | Размер: 3.11 ГБ | Добавлен: 24 июл 2013
Раздают: 37    Качают: 6
Скачать торрент
Скачать торрент
Описание торрента

СообщениеДобавлено: 24 июл 2013 



Информация о фильме
Оригинальное название: Няньки
Год выхода: 2012
Жанр: комедия
Режиссер: Ашот Кещян
В ролях: Николай Наумов, Арарат Кещян, Людмила Артемьева, Аглая Шиловская, Лина Добророднова, Илья Костюков, Глеб Сердюков, Олеся Железняк, Дитер Брандекер, Майкл Бэрал

О фильме:
Валентина — жесткая, хладнокровная владелица крупной туристической фирмы, которой предстоит решение сложной задачи в стране, где женщину, независимо от профессионализма, не может ждать успех в бизнесе — Турции. На помощь она вызывает работников своего уральского филиала Диму и Мишу — безынициативных лодырей, по несчастливой случайности оказавшихся единственными сотрудниками мужского пола. Предполагаемый отпуск за границей оборачивается для безответственных весельчаков не только последним шансом доказать свою профпригодность и избежать позорного увольнения, но и представляет угрозу для здоровья и жизни: по роковому стечению обстоятельств Миша и Дима остаются один на один с тремя неуправляемыми детьми Валентины. А, как известно, беда не приходит одна, поэтому, когда приезжает мама Валентины якобы присмотреть за внуками, задачи для молодых людей усложняются появлением практически еще одного ребенка, который требует за собой не меньшего присмотра, чем реальные дети. Теперь друзьям придется разбираться и с детьми, и с бабушкой, и с немецкими конкурентами, и все это — в попытках не провалить судьбоносную сделку. Смогут ли наши герои справиться с заданием и завоевать расположение Валентины и ее детей?



Выпущено: Россия / Enjoy Movies
Продолжительность: 01:33:44
Озвучивание: Оригинальное [лицензия]

Файл
Формат: MKV
Качество: BDRip 720p
Видео: 3142 kb/s, 1280x544
Аудио: DTS, 1510 kb/s (6 ch)
Субтитры: нет
Дополнительно: Сохранены оригинальные чаптеры как на Blu-ray.
Скачать: Сэмпл

General
Unique ID : 177041804242318088759076447524740387897 (0x853102DF4E0DE3EB97188E648297D439)
Complete name : Njanki.2012.O.BDRip.720p.IRONCLUB.mkv
Format : Matroska
Format version : Version 2
File size : 3.11 GiB
Duration : 1h 33mn
Overall bit rate : 4 747 Kbps
Movie name : IRONCLUB
Encoded date : UTC 2012-05-29 19:33:19
Writing application : mkvmerge v4.9.1 ('Ich will') built on Jul 11 2011 23:53:15
Writing library : libebml v1.2.1 + libmatroska v1.1.1

Video
ID : 1
Format : AVC
Format/Info : Advanced Video Codec
Format profile : High@L4.1
Format settings, CABAC : Yes
Format settings, ReFrames : 12 frames
Codec ID : V_MPEG4/ISO/AVC
Duration : 1h 33mn
Bit rate : 3 142 Kbps
Width : 1 280 pixels
Height : 544 pixels
Display aspect ratio : 2.35:1
Frame rate : 24.000 fps
Color space : YUV
Chroma subsampling : 4:2:0
Bit depth : 8 bits
Scan type : Progressive
Bits/(Pixel*Frame) : 0.188
Stream size : 2.06 GiB (66%)
Title : Njanki 2012 720p BluRay DTS x264-IRONCLUB
Writing library : x264 core 120 r2164 da19765
Encoding settings : cabac=1 / ref=12 / deblock=1:-3:-3 / analyse=0x3:0x113 / me=umh / subme=10 / psy=1 / psy_rd=1.05:0.05 / mixed_ref=1 / me_range=24 / chroma_me=1 / trellis=2 / 8x8dct=1 / cqm=0 / deadzone=21,11 / fast_pskip=0 / chroma_qp_offset=-2 / threads=12 / sliced_threads=0 / nr=0 / decimate=1 / interlaced=0 / bluray_compat=0 / constrained_intra=0 / bframes=7 / b_pyramid=2 / b_adapt=2 / b_bias=0 / direct=3 / weightb=1 / open_gop=0 / weightp=2 / keyint=240 / keyint_min=24 / scenecut=40 / intra_refresh=0 / rc_lookahead=40 / rc=crf / mbtree=1 / crf=17.0 / qcomp=0.60 / qpmin=10 / qpmax=69 / qpstep=4 / vbv_maxrate=50000 / vbv_bufsize=62500 / crf_max=0.0 / nal_hrd=none / ip_ratio=1.40 / aq=1:1.00
Language : Russian
Default : Yes
Forced : Yes
Matrix coefficients : BT.709-5, BT.1361, IEC 61966-2-4 709, SMPTE RP177

Audio
ID : 2
Format : DTS
Format/Info : Digital Theater Systems
Codec ID : A_DTS
Duration : 1h 33mn
Bit rate mode : Constant
Bit rate : 1 510 Kbps
Channel(s) : 6 channels
Channel positions : Front: L C R, Side: L R, LFE
Sampling rate : 48.0 KHz
Bit depth : 24 bits
Compression mode : Lossy
Stream size : 1 012 MiB (32%)
Title : DTS 5.1 @ 1536 kbps
Language : Russian
Default : Yes
Forced : Yes

Menu
00:00:00.000 : :Chapter 01
00:05:59.375 : :Chapter 02
00:14:43.708 : :Chapter 03
00:23:06.291 : :Chapter 04
00:35:26.916 : :Chapter 05
00:44:40.916 : :Chapter 06
00:51:10.708 : :Chapter 07
00:57:29.541 : :Chapter 08
01:04:46.000 : :Chapter 09
01:14:10.208 : :Chapter 10
01:21:47.000 : :Chapter 11
01:27:53.250 : :Chapter 12

x264 [info]: frame I:1781 Avg QP:14.41 size:126757
x264 [info]: frame P:32526 Avg QP:17.94 size: 34533
x264 [info]: frame B:100681 Avg QP:21.65 size: 9208


Скриншоты







Релиз от:



   Похожие торренты   Торрент   Размер 
В этой теме нет новых непрочитанных сообщений. Няньки (2012) BDRip 720p от leonardo 59 | Лицензия

235 | 9

2.62 ГБ

В этой теме нет новых непрочитанных сообщений. Няньки (2012) BDRip-AVC от R.G. AVI | AVC | Лицензия

63 | 5

1.46 ГБ

В этой теме нет новых непрочитанных сообщений. Няньки (2012) BDRip от HQCLUB | Лицензия

722 | 38

1.46 ГБ

В этой теме нет новых непрочитанных сообщений. Няньки (2012) Blu-Ray 1080p | Лицензия

1 | 7

16.01 ГБ

В этой теме нет новых непрочитанных сообщений. Няньки (2012) DVD9 | Лицензия

13 | 4

5.98 ГБ

В этой теме нет новых непрочитанных сообщений. Няньки (2012) HDRip | Лицензия

71 | 6

696.47 МБ

В этой теме нет новых непрочитанных сообщений. Няньки (2012) BDRip от HELLYWOOD

75 | 4

1.45 ГБ




Вы не можете начинать темы
Вы не можете отвечать на сообщения
Вы не можете редактировать свои сообщения
Вы не можете удалять свои сообщения
Вы не можете добавлять вложения

Перейти:  
Для Мосгорсуда, Роскомнадзора и рекламодателей: mosgorsud-torrent[собачка]yandex.ru
 Вход
ppkBB3cker v.2 © 2008-2014 @ PPK
[ Time : 0.035s | 15 Queries | GZIP : Off ]

Торрент трекер RUTOR.IN, Не можете зайти на rutor.org? Какой новый адрес рутор? Какое зеркало рутор? Не работает rutor.org и зеркала? Тогда наш торрент специально для вас. Rutor.in неофициальное зеркало rutor. В случае если у Вас заблокирован rutor или вдруг Вы не можете на него зайти, то Вы без труда сможете скачать бесплатно и без рекламы последние новинки кино, игр, сериалов и прочего у нас, на Rutor.in. Не нужно использовать прокси, чтобы зайти на рутор, достаточно воспользоваться нашим ресурсом. Все новые фильмы, игры, сериалы, книги и музыка за 2013 и 2014 годы через торрент бесплатно. Скачивайте фильмы в хорошем качестве, игры для пк, xbox, playstation без регистрации. У нас вы найдете новые Зарубежные сериалы и Русские сериалы 2013, 2014, 2015 годов. Оставайтесь с нами, качайте любимые фильмы, игры, сериалы, книги и музыку.
cron