img image001 image001 image001 image001 image001 image001 image001 image001 image001 image001 image001 image001 image001 image001 image001

Planets Sun Sun Sun
Статистика раздачи
Автор: Снежана | Размер: 744.98 МБ | Добавлен: 24 июл 2013
Раздают: 9    Качают: 4
Скачать торрент
Скачать торрент
Описание торрента

СообщениеДобавлено: 24 июл 2013 

#77

Информация о фильме
Название: Чокнутые
Год выхода: 1991
Жанр: Комедия
Режиссер: Алла Сурикова
В ролях: Ульрих Плайтген, Николай Караченцов, Леонид Ярмольник, Ольга Кабо, Сергей Степанченко, Наталья Гундарева, Виктор Проскурин, Михаил Боярский, Алексей Жарков, Всеволод Ларионов, Наталья Крачковская, Александр Ширвиндт, Михаил Державин, Семен Фарада, Георгий Штиль, Михаил Филиппов и другие.

О фильме:
Музыкальная комедия о пустых хлопотах господина из Австрии, мечтающего навести порядок на первой железной дороге в России, соединяющей Петербург с Царским Селом…
Страна: Россия
Продолжительность: 01:30:03
Файл
Кодек: XviD
Качество: DVDRip
Видео: 640x480 (1.33:1), XviD 1.2.1, 25 fps, 1019 kbps, 0.13 bit/pixel
Звук: MPEG Audio Layer 3 48000Hz stereo 128kbp


General
Complete name : D:ФильмыЧокнутые DVDRip_(1991).avi
Format : AVI
Format/Info : Audio Video Interleave
File size : 745 MiB
Duration : 1h 30mn
Overall bit rate : 1 157 Kbps
Writing application : VirtualDubMod 1.5.10.2 (build 2540/release)
Writing library : VirtualDubMod build 2540/release
Video
ID : 0
Format : MPEG-4 Visual
Format profile : Advanced Simple@L5
Format settings, BVOP : Yes
Format settings, QPel : No
Format settings, GMC : No warppoints
Format settings, Matrix : Default (H.263)
Codec ID : XVID
Codec ID/Hint : XviD
Duration : 1h 30mn
Bit rate : 1 019 Kbps
Width : 640 pixels
Height : 480 pixels
Display aspect ratio : 4:3
Frame rate : 25.000 fps
Color space : YUV
Chroma subsampling : 4:2:0
Bit depth : 8 bits
Scan type : Progressive
Bits/(Pixel*Frame) : 0.133
Stream size : 656 MiB (88%)
Writing library : XviD 1.2.1 (UTC 2008-12-04)
Audio
ID : 1
Format : MPEG Audio
Format version : Version 1
Format profile : Layer 3
Codec ID : 55
Codec ID/Hint : MP3
Duration : 1h 30mn
Bit rate mode : Constant
Bit rate : 128 Kbps
Channel(s) : 2 channels
Sampling rate : 48.0 KHz
Stream size : 82.4 MiB (11%)
Alignment : Aligned on interleaves
Interleave, duration : 40 ms (1.00 video frame)
Interleave, preload duration : 504 ms
Writing library : LAME3.98r
Encoding settings : -m s -V 4 -q 2 -lowpass 17 -b 128



   Похожие торренты   Торрент   Размер 
В этой теме нет новых непрочитанных сообщений. Чокнутые (1991) DVDRip

47 | 6

1.33 ГБ

В этой теме нет новых непрочитанных сообщений. Чокнутые (1991) DVDRip | Реставрация

101 | 25

1.46 ГБ

В этой теме нет новых непрочитанных сообщений. Крезанутые / Всё такие же чокнутые / Still Crazy (1998) DVDRip от Scarabey | P2

78 | 17

1.45 ГБ

В этой теме нет новых непрочитанных сообщений. Чокнутые Гонки / Wacky Races (2000) PC

16 | 4

568.66 МБ

В этой теме нет новых непрочитанных сообщений. Финал НБА 1991 года Лос Анжелес Лейкерс против Чикаго Буллз . 3 матч серии / NBA Final 1991 (Chicago Bulls vs LA Lakers) (1991) TVRip

3 | 11

1.28 ГБ

В этой теме нет новых непрочитанных сообщений. Штемп (1991) DVDRip

25 | 11

1.37 ГБ

В этой теме нет новых непрочитанных сообщений. Волкодав (1991) DVDRip

69 | 10

1.37 ГБ




Вы не можете начинать темы
Вы не можете отвечать на сообщения
Вы не можете редактировать свои сообщения
Вы не можете удалять свои сообщения
Вы не можете добавлять вложения

Перейти:  
Для Мосгорсуда, Роскомнадзора и рекламодателей: mosgorsud-torrent[собачка]yandex.ru
 Вход
ppkBB3cker v.2 © 2008-2014 @ PPK
[ Time : 0.031s | 14 Queries | GZIP : Off ]

Торрент трекер RUTOR.IN, Не можете зайти на rutor.org? Какой новый адрес рутор? Какое зеркало рутор? Не работает rutor.org и зеркала? Тогда наш торрент специально для вас. Rutor.in неофициальное зеркало rutor. В случае если у Вас заблокирован rutor или вдруг Вы не можете на него зайти, то Вы без труда сможете скачать бесплатно и без рекламы последние новинки кино, игр, сериалов и прочего у нас, на Rutor.in. Не нужно использовать прокси, чтобы зайти на рутор, достаточно воспользоваться нашим ресурсом. Все новые фильмы, игры, сериалы, книги и музыка за 2013 и 2014 годы через торрент бесплатно. Скачивайте фильмы в хорошем качестве, игры для пк, xbox, playstation без регистрации. У нас вы найдете новые Зарубежные сериалы и Русские сериалы 2013, 2014, 2015 годов. Оставайтесь с нами, качайте любимые фильмы, игры, сериалы, книги и музыку.