img image001 image001 image001 image001 image001 image001 image001 image001 image001 image001 image001 image001 image001 image001 image001

Planets Sun Sun Sun
Статистика раздачи
Автор: Снежана | Размер: 702.02 МБ | Добавлен: 24 июл 2013
Раздают: 2    Качают: 3
Скачать торрент
Скачать торрент
Описание торрента

СообщениеДобавлено: 24 июл 2013 

#77

Информация о фильме
Название: Долина роз
Оригинальное название: Долина роз
Год выхода: 2011
Жанр: драма
Режиссер: Дмитрий Черкасов
В ролях: Анатолий Белый, Юлия Снигирь, Виталий Хаев, Оксана Фандера, Александр Горелов, Варвара Феофанова и др.

О фильме:
История человека, начавшего новую жизнь на окраине маленького рыбацкого поселка. Жизнь с рыбаками - тихая и спокойная. Здесь каждый занят делом, никто не задает лишних вопросов. А посиделки в рыбацкой таверне под романтичным названием "Долина роз" приносят своеобразное счастье. Но не все так просто, как кажется. На горизонте появляется Женщина. И весь уклад меняется необратимо...

General
Complete name : Dolina.roz.2011.O.SATRip.mp4
Format : MPEG-4
Format profile : Base Media
Codec ID : isom
File size : 702 MiB
Duration : 1h 58mn
Overall bit rate : 828 Kbps
Writing application : Lavf52.94.0

Video
ID : 1
Format : AVC
Format/Info : Advanced Video Codec
Format profile : Main@L3.0
Format settings, CABAC : Yes
Format settings, ReFrames : 2 frames
Codec ID : avc1
Codec ID/Info : Advanced Video Coding
Duration : 1h 58mn
Duration_FirstFrame : -40ms
Bit rate : 700 Kbps
Width : 720 pixels
Height : 384 pixels
Display aspect ratio : 1.875
Frame rate mode : Variable
Frame rate : 25.000 fps
Minimum frame rate : 12.500 fps
Maximum frame rate : 25.000 fps
Color space : YUV
Chroma subsampling : 4:2:0
Bit depth : 8 bits
Scan type : Progressive
Bits/(Pixel*Frame) : 0.101
Stream size : 589 MiB (84%)
Writing library : x264 core 112 r1834 a51816a
Encoding settings : cabac=1 / ref=1 / deblock=1:0:0 / analyse=0x1:0 / me=dia / subme=2 / psy=1 / psy_rd=0.00:0.00 / mixed_ref=0 / me_range=16 / chroma_me=1 / trellis=0 / 8x8dct=0 / cqm=0 / deadzone=21,11 / fast_pskip=1 / chroma_qp_offset=0 / threads=3 / sliced_threads=0 / nr=0 / decimate=1 / interlaced=0 / constrained_intra=0 / bframes=3 / b_pyramid=0 / b_adapt=1 / b_bias=0 / direct=3 / weightb=0 / open_gop=0 / weightp=2 / keyint=250 / keyint_min=25 / scenecut=40 / intra_refresh=0 / rc_lookahead=40 / rc=abr / mbtree=1 / bitrate=700 / ratetol=1.0 / qcomp=0.60 / qpmin=10 / qpmax=51 / qpstep=4 / ip_ratio=1.41 / aq=1:1.00

Audio
ID : 2
Format : MPEG Audio
Format version : Version 1
Format profile : Layer 3
Mode : Joint stereo
Mode extension : MS Stereo
Codec ID : 6B
Duration : 1h 58mn
Bit rate mode : Constant
Bit rate : 128 Kbps
Channel(s) : 2 channels
Sampling rate : 44.1 KHz
Compression mode : Lossy
Delay relative to video : -1ms
Stream size : 108 MiB (15%)

Страна: Россия, Латвия
Продолжительность: 01:58:30
Перевод: Оригинальное

Файл
Кодек: MPEG-4
Качество: SATRip
Видео: 700 kb/s, 720x384
Звук: МР3, 128 kb/s (2 ch)




   Похожие торренты   Торрент   Размер 
В этой теме нет новых непрочитанных сообщений. Семейное дерево / The Family Tree (2011) SATRip от Filmacik

0 | 3

699.81 МБ

В этой теме нет новых непрочитанных сообщений. Долина смерти / Долина мертвецов / Death Valley [S01] (2011) WEB-DL 720p | AlexFilm

25 | 11

8.11 ГБ

В этой теме нет новых непрочитанных сообщений. Долина мертвецов / Долина смерти / Death Valley [S01] (2011) WEB-DLRip | AlexFilm

19 | 4

2.72 ГБ

В этой теме нет новых непрочитанных сообщений. Долина роз (2011) SATRip

40 | 10

1.37 ГБ

В этой теме нет новых непрочитанных сообщений. Отель для Золушки (2012) SATRip от FILMACIK

59 | 10

1.35 ГБ

В этой теме нет новых непрочитанных сообщений. Убийство на удачу / Murder on Spec (2006) SATRip от Filmacik

6 | 2

700.57 МБ

В этой теме нет новых непрочитанных сообщений. Джеймс Понт / Torrente 4 (2011) HDRip от FILMACIK

5 | 2

1.46 ГБ




Вы не можете начинать темы
Вы не можете отвечать на сообщения
Вы не можете редактировать свои сообщения
Вы не можете удалять свои сообщения
Вы не можете добавлять вложения

Перейти:  
Для Мосгорсуда, Роскомнадзора и рекламодателей: mosgorsud-torrent[собачка]yandex.ru
 Вход
ppkBB3cker v.2 © 2008-2014 @ PPK
[ Time : 0.033s | 14 Queries | GZIP : On ]

Торрент трекер RUTOR.IN, Не можете зайти на rutor.org? Какой новый адрес рутор? Какое зеркало рутор? Не работает rutor.org и зеркала? Тогда наш торрент специально для вас. Rutor.in неофициальное зеркало rutor. В случае если у Вас заблокирован rutor или вдруг Вы не можете на него зайти, то Вы без труда сможете скачать бесплатно и без рекламы последние новинки кино, игр, сериалов и прочего у нас, на Rutor.in. Не нужно использовать прокси, чтобы зайти на рутор, достаточно воспользоваться нашим ресурсом. Все новые фильмы, игры, сериалы, книги и музыка за 2013 и 2014 годы через торрент бесплатно. Скачивайте фильмы в хорошем качестве, игры для пк, xbox, playstation без регистрации. У нас вы найдете новые Зарубежные сериалы и Русские сериалы 2013, 2014, 2015 годов. Оставайтесь с нами, качайте любимые фильмы, игры, сериалы, книги и музыку.