img image001 image001 image001 image001 image001 image001 image001 image001 image001 image001 image001 image001 image001 image001 image001

Planets Sun Sun Sun
Статистика раздачи
Автор: Снежана | Размер: 4.35 ГБ | Добавлен: 24 июл 2013
Раздают: 1    Качают: 3
Скачать торрент
Скачать торрент
Описание торрента

СообщениеДобавлено: 24 июл 2013 

#77
Название: Калачи
Год выпуска: 2011
Страна: Россия
Слоган: «Комедия с характером»
Жанр: комедия
Продолжительность: 01:20:35
Перевод: Не требуется

Режиссер: Нурбек Эген
Продюсер: Александр Литвинов
Оператор: Юрий Невский
Композитор: Роман Дормидошин
В ролях: Владимир Ильин, Фёдор Добронравов, Ирина Купченко, Светлана Пермякова, Андрей Назимов, Армен Мурадян, Виктория Романенко, Александра Нижегородова, Михаил Попов, Сергей Шнуров, Виталий Кищенко

Описание: Егорка Калач - парень из казачьей семьи. Испокон веку Калачи занимались тем, что доблестно служили Отечеству. Когда вдруг выясняется, что Егорка единственный, кому не пришла повестка в армию, это становится ударом для всей семьи. Калачи добиваются справедливости. И в итоге совершенно случайно Егорка попадает не в простой полк, а в Кремлевский. Соседи Калачей этому не верят и требуют подтверждений - например, фото, где был бы изображен Егорка и Президент. Справится ли Егор с заданием?



Релиз:

Качество: DVD5 (сжатый)
Формат: DVD Video
Видео: MPEG2; PAL 16:9 (720x576)
Аудио: Dolby AC3, 2 ch, 192 Kbps Russian
Субтитры: нет


Дополнительная информация :
Исходник : DVD9 (4.7 Гб) [лицензия, PAL 16:9]
Убрано : часть анонсов
Сжатие фильма : нет

DVDRemakePro
Photoshop
MuxMan
Работоспособность проверена на софтовом плеере Windows Media и бытовом LG
Title: Kalachi_2011_DVD5.[R.G.Daredevil]
Size: 4.35 Gb ( 4 556 530,00 KBytes ) - DVD-5
Enabled regions: 1, 2, 3, 4, 5, 6, 7, 8

VTS_01 :
Play Length: 00:00:15
Video: PAL 4:3 (720x576) VBR
Audio:
Not specified (Dolby AC3, 2 ch)

VTS_02 :
Play Length: 00:00:08
Video: PAL 16:9 (720x576) VBR, Auto Letterboxed
Audio:
Not specified (Dolby AC3, 2 ch)

VTS_03 :
Play Length: 00:00:00
Video: PAL 16:9 (720x576) VBR, Auto Letterboxed
Audio:
Not specified (Dolby AC3, 2 ch)

VTS_04 :
Play Length: 00:02:31
Video: PAL 16:9 (720x576) VBR, Auto Letterboxed
Audio:
Not specified (Dolby AC3, 2 ch)

VTS_05 :
Play Length: 00:00:00
Video: PAL 16:9 (720x576) VBR, Auto Letterboxed
Audio:
Not specified (Dolby AC3, 2 ch)

VTS_06 :
Play Length: 00:01:51
Video: PAL 16:9 (720x576) VBR, Auto Letterboxed
Audio:
Not specified (Dolby AC3, 2 ch)

VTS_07 :
Play Length: 00:00:00
Video: PAL 16:9 (720x576) VBR, Auto Letterboxed
Audio:
Not specified (Dolby AC3, 2 ch)

VTS_08 :
Play Length: 00:00:00
Video: PAL 16:9 (720x576) VBR, Auto Letterboxed
Audio:
Not specified (Dolby AC3, 2 ch)

VTS_09 :
Play Length: 00:02:19
Video: PAL 16:9 (720x576) VBR, Auto Letterboxed
Audio:
Not specified (Dolby AC3, 2 ch)

VTS_10 :
Play Length: 00:00:01
Video: PAL 16:9 (720x576) VBR, Auto Letterboxed
Audio:
Not specified (Dolby AC3, 2 ch)

VTS_11 :
Play Length: 01:20:35
Video: PAL 16:9 (720x576) VBR, Auto Letterboxed
Audio:
Russian (Dolby AC3, 2 ch)

VTS_12 :
Play Length: 00:00:01
Video: PAL 16:9 (720x576) VBR, Auto Letterboxed
Audio:
Not specified (Dolby AC3, 2 ch)
Формат : MPEG-PS
Размер файла : 1024 Мбайт
Продолжительность : 20 м.
Общий поток : 7113 Кбит/сек

Видео
Идентификатор : 224 (0xE0)
Формат : MPEG Video
Версия формата : Version 2
Профиль формата : Main@Main
Параметр BVOP формата : Да
Параметр матрицы формата : Выборочная
Продолжительность : 20 м.
Битрейт : 6780 Кбит/сек
Максимальный битрейт : 6800 Кбит/сек
Ширина : 720 пикселей
Высота : 576 пикселей
Соотношение сторон : 4:3
Частота кадров : 25,000 кадров/сек
Стандарт вещания : PAL
Цветовое пространство : YUV
Субдискретизация насыщенности : 4:2:0
Битовая глубина : 8 бит
Тип развёртки : Чересстрочная
Порядок развёртки : Верхнее поле первое
Метод сжатия : С потерями
Бит/(Пиксели*Кадры) : 0.654
Размер потока : 976 Мбайт (95%)

Аудио
Идентификатор : 189 (0xBD)-128 (0x80)
Формат : AC-3
Формат/Информация : Audio Coding 3
Расширение режима : CM (complete main)
Режим смешивания : DVD-Video
Продолжительность : 20 м.
Вид битрейта : Постоянный
Битрейт : 192 Кбит/сек
Каналы : 2 канала
Расположение каналов : Front: L R
Частота : 48,0 КГц
Битовая глубина : 16 бит
Метод сжатия : С потерями
Размер потока : 27,6 Мбайт (3%)

Меню













   Похожие торренты   Торрент   Размер 
В этой теме нет новых непрочитанных сообщений. Калачи (2011) DVD9

0 | 3

4.7 ГБ

В этой теме нет новых непрочитанных сообщений. Калачи (2011) DVDRip

50 | 5

743.62 МБ

В этой теме нет новых непрочитанных сообщений. Калачи (2011) DVDRip-AVC от R.G. AVI | AVC | Лицензия

70 | 4

1.46 ГБ

В этой теме нет новых непрочитанных сообщений. Калачи (2011) DVDRip | Лицензия

92 | 10

1.37 ГБ

В этой теме нет новых непрочитанных сообщений. Калачи (2011) DVDRip | КПК от Kino@rena | Лицензия

1 | 2

257.4 МБ

В этой теме нет новых непрочитанных сообщений. Rammstein - Made in Germany 1995-2011 Super Deluxe Edition (2011) DVD5

10 | 15

13.1 ГБ

В этой теме нет новых непрочитанных сообщений. Gorillaz - The Singles Collection 2001 - 2011 (2011) DVD5

3 | 3

4.37 ГБ




Вы не можете начинать темы
Вы не можете отвечать на сообщения
Вы не можете редактировать свои сообщения
Вы не можете удалять свои сообщения
Вы не можете добавлять вложения

Перейти:  
Для Мосгорсуда, Роскомнадзора и рекламодателей: mosgorsud-torrent[собачка]yandex.ru
 Вход
ppkBB3cker v.2 © 2008-2014 @ PPK
[ Time : 6.349s | 14 Queries | GZIP : Off ]

Торрент трекер RUTOR.IN, Не можете зайти на rutor.org? Какой новый адрес рутор? Какое зеркало рутор? Не работает rutor.org и зеркала? Тогда наш торрент специально для вас. Rutor.in неофициальное зеркало rutor. В случае если у Вас заблокирован rutor или вдруг Вы не можете на него зайти, то Вы без труда сможете скачать бесплатно и без рекламы последние новинки кино, игр, сериалов и прочего у нас, на Rutor.in. Не нужно использовать прокси, чтобы зайти на рутор, достаточно воспользоваться нашим ресурсом. Все новые фильмы, игры, сериалы, книги и музыка за 2013 и 2014 годы через торрент бесплатно. Скачивайте фильмы в хорошем качестве, игры для пк, xbox, playstation без регистрации. У нас вы найдете новые Зарубежные сериалы и Русские сериалы 2013, 2014, 2015 годов. Оставайтесь с нами, качайте любимые фильмы, игры, сериалы, книги и музыку.