img image001 image001 image001 image001 image001 image001 image001 image001 image001 image001 image001 image001 image001 image001 image001

Planets Sun Sun Sun
Статистика раздачи
Автор: Снежана | Размер: 3.72 ГБ | Добавлен: 24 июл 2013
Раздают: 0    Качают: 3
Скачать торрент
Скачать торрент
Описание торрента

СообщениеДобавлено: 24 июл 2013 

#77

Информация о фильме
Оригинальное название: Влюбленные
Год выпуска: 2011
Жанр: Драма, мелодрама, комедия
Режиссер: Валерий Бебко, Олег Борщевский, Денис Гамзинов...
В ролях: Даша Астафьева, Ада Роговцева, Артем Семакин, Александр Яценко, Виталий Линецкий, Илья Исаев, Елена Фесуненко, Юлия Емельяненко, Николай Олейник, Григорий Калинин

О фильме: Альманах короткометражных фильмов о любви в современном мегаполисе, глазами молодых украинских режиссеров.



Выпущено: Украина, inQ
Продолжительность: 01:40:17
Озвучивание: Оригинальное [лицензия]

Файл
Формат: DVD-Video
Качество: DVD5
Видео: PAL 16:9 (720x576(0.441)) MPEG Video, 25,000 кадр/сек, 4575 Кбит/сек
Аудио:Russian (Dolby AC3, 6 ch) 384 Кбит/сек, 48,0 КГц
Размер: 3,72 GB
Скачать: Сэмпл

Title:
Size: 3.72 Gb ( 3 901 586 KBytes ) - DVD-5
Enabled regions: 1, 2, 3, 4, 5, 6, 7, 8

VTS_01 :
Play Length: 00:00:08
Video: PAL 4:3 (720x576) VBR

VTS_02 :
Play Length: 01:40:17
Video: PAL 16:9 (720x576) VBR, Auto Letterboxed
Audio:
Russian (Dolby AC3, 6 ch)

VTS_03 :
Play Length: 00:00:13
Video: PAL 16:9 (720x576) VBR, Auto Letterboxed

Menu Video:
PAL 4:3 (720x576) VBR
Auto Pan&Scan, Auto Letterboxed
Menu Russian Language Unit :
Root Menu
Chapter (PTT) Menu
Общее
Полное имя : G:Новинки 2012Vlublennie.2011.DVD9VIDEO_TSVTS_02_1.VOB
Формат : MPEG-PS
Размер файла : 1024 Мбайт
Продолжительность : 28 м.
Режим общего битрейта : Переменный
Общий поток : 5060 Кбит/сек

Видео
Идентификатор : 224 (0xE0)
Формат : MPEG Video
Версия формата : Version 2
Профиль формата : Main@Main
Параметр BVOP формата : Да
Параметр матрицы формата : Выборочная
Продолжительность : 28 м.
Вид битрейта : Переменный
Битрейт : 4575 Кбит/сек
Максимальный битрейт : 8000 Кбит/сек
Ширина : 720 пикселей
Высота : 576 пикселей
Соотношение сторон : 16:9
Частота кадров : 25,000 кадров/сек
Стандарт вещания : PAL
Цветовое пространство : YUV
Субдискретизация насыщенности : 4:2:0
Битовая глубина : 8 бит
Тип развёртки : Чересстрочная
Порядок развёртки : Верхнее поле первое
Метод сжатия : С потерями
Бит/(Пиксели*Кадры) : 0.441
Размер потока : 926 Мбайт (90%)

Аудио
Идентификатор : 189 (0xBD)-128 (0x80)
Формат : AC-3
Формат/Информация : Audio Coding 3
Расширение режима : CM (complete main)
Режим смешивания : DVD-Video
Продолжительность : 28 м.
Вид битрейта : Постоянный
Битрейт : 384 Кбит/сек
Каналы : 6 каналов
Расположение каналов : Front: L C R, Side: L R, LFE
Частота : 48,0 КГц
Битовая глубина : 16 бит
Метод сжатия : С потерями
Размер потока : 77,7 Мбайт (8%)



Релиз:



   Похожие торренты   Торрент   Размер 
В этой теме нет новых непрочитанных сообщений. Влюбленные (2011) DVDRip | Лицензия

9 | 4

1.37 ГБ

В этой теме нет новых непрочитанных сообщений. Влюбленные (2011) DVDRip | Лицензия

3 | 5

748.66 МБ

В этой теме нет новых непрочитанных сообщений. Влюбленные. Фильм второй / Влюбленные в Афган (2004) DVDRip от Киномагия

68 | 10

1.37 ГБ

В этой теме нет новых непрочитанных сообщений. Влюбленные / Belle du Seigneur (2012) DVDRip | Лицензия

5 | 1

1.46 ГБ

В этой теме нет новых непрочитанных сообщений. Влюбленные / Belle du Seigneur (2012) BDRip 720p | Лицензия

82 | 2

4.68 ГБ

В этой теме нет новых непрочитанных сообщений. Влюбленные (2011) DVDRip | КПК от Lebanon

1 | 2

360.65 МБ

В этой теме нет новых непрочитанных сообщений. Влюбленные женщины / Women in Love (2011) DVDRip

43 | 3

2.19 ГБ




Вы не можете начинать темы
Вы не можете отвечать на сообщения
Вы не можете редактировать свои сообщения
Вы не можете удалять свои сообщения
Вы не можете добавлять вложения

Перейти:  
Для Мосгорсуда, Роскомнадзора и рекламодателей: mosgorsud-torrent[собачка]yandex.ru
 Вход
ppkBB3cker v.2 © 2008-2014 @ PPK
[ Time : 0.053s | 15 Queries | GZIP : Off ]

Торрент трекер RUTOR.IN, Не можете зайти на rutor.org? Какой новый адрес рутор? Какое зеркало рутор? Не работает rutor.org и зеркала? Тогда наш торрент специально для вас. Rutor.in неофициальное зеркало rutor. В случае если у Вас заблокирован rutor или вдруг Вы не можете на него зайти, то Вы без труда сможете скачать бесплатно и без рекламы последние новинки кино, игр, сериалов и прочего у нас, на Rutor.in. Не нужно использовать прокси, чтобы зайти на рутор, достаточно воспользоваться нашим ресурсом. Все новые фильмы, игры, сериалы, книги и музыка за 2013 и 2014 годы через торрент бесплатно. Скачивайте фильмы в хорошем качестве, игры для пк, xbox, playstation без регистрации. У нас вы найдете новые Зарубежные сериалы и Русские сериалы 2013, 2014, 2015 годов. Оставайтесь с нами, качайте любимые фильмы, игры, сериалы, книги и музыку.
cron